ML
     
  Уважаемый Гость!
Вы можете поддержать проект и зарегистрироваться у наших партнеров - онлайн-стратегия MyLands. При регистрации в игре Вы получите код, который сможете активировать после регистрации на pirat.ca и получить 1000 дублонов.

Ваш код:
a261790f23fb05d13d060bdee9cb70d1451a6d3d
 
     

Робокоп (сериал ТВ) / RoboCop (TV) / Сезон: 1 / Серии: 1-22 из 22 (Пол Линч / Paul Lynch, ...) [1994 г., фантастика, боевик, комедия, приключения, DVDRip-AVC] MVO (OmskBird) + Original (Eng)

Ответить на тему
 
Автор
Сообщение

Пост 04-Май-2016 20:56

[Q] 

somik

Легенда

-Робокоп (сериал) / RoboCop-- Производство: Канада, Robocop Productions Ltd., Rysher Entertainment, Skyvision Entertainment
Жанр: фантастика, боевик, комедия, приключения
Год выпуска: 1994 г.
Продолжительность: 00:43:00
Мировая премьера: 14 марта 1994
Перевод: Профессиональный (многоголосый, закадровый) [OmskBird]
Оригинальный аудиопоток: английский
Режиссер: Пол Линч / Paul Lynch, ...-В ролях: Ричард Иден / Richard Eden, Иветт Нипар / Yvette Nipar, Блю Манкума / Blu Mankuma, Эндреа Рот / Andrea Roth, Дэвид Гарднер / David Gardner, Сэра Кэмпбелл / Sarah Campbell и др.-Описание: Его создали из самого честного полицейского в городе по имени Алекс Мерфи. Создали, соединив человеческую плоть со сталью машины. Вероломно убитый бандитами офицер Мерфи стал частью уникального эксперимента корпорации OCP (ОСиПи) по созданию первого в истории робота-полицейского, несокрушимого и грозного защитника закона.
Его нельзя подкупить. Его чертовски сложно взять на жалость и совершенно невозможно испугать. Соревнования с ним в искусстве стрельбы и тактике ведения боя — бесполезны. Это полумеханическое существо специально создано для войны в экстремальных условиях.-
Качество видео: DVDRip-AVC
Контейнер: MKV
Видео кодек: MPEG4 AVC
Аудио кодек: AC3
Видео: AVC / 900 kbps / 720:592p / 25 fps / 4:3 / 0.272 bit/pixel
Аудио: Русский / AC3 Dolby Digital 2.0 / 48.0 kHz / 192 kbps
Аудио #2: English / AC3 Dolby Digital 2.0 / 48.0 kHz / 224 kbps
Cубтитры: отсутствуют
Данный сериал является продолжением первых трех оригинальных полнометражных художественных фильмов. Вышел на экраны в 1994 году и просуществовал всего лишь 1 сезон. Зато свет увидело целых 22 серии о приключениях Робота-полицейского.
Достойный предшественников.
Сериал представляет собой римейк-продолжение оригинального фильма 1987 года.
Энн Льюис сдесь переименовали в Лизу Мэдиган, сержанта Рида теперь зовут сержант Паркс. Много новых персонажей, например добрый техник Чарли Липпинкотт, названый так в честь известного рекламщика и кинопродюсера который известен в первую очередь как директор маркетинга «Звёздных воин». Ещё стоит отметить этакий аналог Джокера из «Бэтмена», это психопат Морда Морган, очень яркий персонаж, который появляется в некоторых сериях, как своего рода главный противник Робота-полицейского.
Люди которые придумали оригинальный фильм, сценаристы Эд Ньюмайер и Майкл Майнер, так же придумали этот сериал, они были сценаристами полуторачасового пилотного фильма, а на всех остальных сериях были консультантами авторов, то есть по сути они соавторы всего сериала. Поэтому сериал получился очень интересный и захватывающий, некоторый серии по трюкам и боевым сценам превосходят полнометражные фильмы о Робокопе (их три). Сериал являет собой настоящие путешествие по миру будущего, и в этом его главное превосходство над полнометражными фильмами, так как в них действие происходило в самом ближайшем будущим, а в сериале действие происходит в 2020 годах, тем более в сериале 22 серии, первая серия на полтора часа, все последующие по сорок минут.
Актёры все очень хорошие. Ричард Иден идеально подошёл для роли Робокопа, он сыграл великолепно, его движения робота идеальны, его внешность и голос очень подходят без всяких сомнений, Ричард достойная замена оригинальному исполнителю этой роли Питеру Уэллеру. Блю Манкума-исполнитель роли сержанта Паркса, сыграл лучше чем оригинальный исполнитель этой роли Роберт ДуКуй, персонаж в сериале более душевный и чувствительный.
Режиссура крепкая во всех сериях, не смотря на то что большинство серий сняты разными режиссёрами.
Музыка потрясающая, симфоническая, главная тема такая же как в оригинальном фильме, слегка изменённая. Дополнительная музыка, написанная специально для сериала тоже очень впечатляет. Музыка так же хорошо подчёркивает атмосферу будущего.
Великолепный сериал, достойный полнометражных предшественников.
10 из 10
Формат : Matroska
Версия формата : Version 2
Размер файла : 791 Мбайт
Продолжительность : 1 ч. 25 м.
Общий поток : 1287 Кбит/сек
Дата кодирования : UTC 2016-01-30 11:19:49
Программа кодирования : mkvmerge v4.0.0 ('The Stars were mine') сборка от Jun 6 2010 16:18:42
Библиотека кодирования : libebml v1.0.0 + libmatroska v1.0.0
Видео
Идентификатор : 1
Формат : AVC
Формат/Информация : Advanced Video Codec
Профиль формата : [email protected]
Параметр CABAC формата : Да
Параметр ReFrames формата : 4 кадра
Идентификатор кодека : V_MPEG4/ISO/AVC
Продолжительность : 1 ч. 25 м.
Битрейт : 861 Кбит/сек
Ширина : 720 пикселей
Высота : 592 пикселя
Соотношение сторон : 1,294
Соотношение сторон в оригинале : 1,216
Режим частоты кадров : Постоянный
Частота кадров : 24,729 кадров/сек
Цветовое пространство : YUV
Субдискретизация насыщенности : 4:2:0
Битовая глубина : 8 бит
Тип развёртки : Прогрессивная
Бит/(Пиксели*Кадры) : 0.082
Размер потока : 520 Мбайт (66%)
Библиотека кодирования : x264 core 79
Настройки программы : cabac=1 / ref=4 / deblock=1:0:0 / analyse=0x3:0x133 / me=umh / subme=9 / psy=1 / psy_rd=1.0:0.0 / mixed_ref=1 / me_range=8 / chroma_me=1 / trellis=2 / 8x8dct=1 / cqm=0 / deadzone=21,11 / chroma_qp_offset=-2 / threads=12 / nr=0 / decimate=1 / mbaff=0 / constrained_intra=0 / bframes=5 / b_pyramid=0 / b_adapt=2 / b_bias=0 / direct=3 / wpredb=1 / wpredp=2 / keyint=250 / keyint_min=25 / scenecut=40 / rc_lookahead=50 / rc=2pass / mbtree=1 / bitrate=861 / ratetol=1.0 / qcomp=0.60 / qpmin=10 / qpmax=51 / qpstep=4 / cplxblur=20.0 / qblur=0.5 / ip_ratio=1.40 / aq=1:1.00
Язык : English
Default : Да
Forced : Нет
Цветовой диапазон : Limited
Основные цвета : BT.601 NTSC
Характеристики трансфера : BT.709
Коэффициенты матрицы : BT.601
Аудио #1
Идентификатор : 2
Формат : AC-3
Формат/Информация : Audio Coding 3
Расширение режима : CM (complete main)
Параметр Endianness формата : Big
Идентификатор кодека : A_AC3
Продолжительность : 1 ч. 25 м.
Вид битрейта : Постоянный
Битрейт : 192 Кбит/сек
Каналы : 2 канала
Расположение каналов : Front: L R
Частота : 44,1 КГц
Частота кадров : 28,711 кадров/сек (1536 spf)
Метод сжатия : С потерями
Размер потока : 118 Мбайт (15%)
Язык : Russian
Default : Да
Forced : Нет
Аудио #2
Идентификатор : 3
Формат : AC-3
Формат/Информация : Audio Coding 3
Расширение режима : CM (complete main)
Параметр Endianness формата : Big
Идентификатор кодека : A_AC3
Продолжительность : 1 ч. 25 м.
Вид битрейта : Постоянный
Битрейт : 224 Кбит/сек
Каналы : 2 канала
Расположение каналов : Front: L R
Частота : 48,0 КГц
Частота кадров : 31,250 кадров/сек (1536 spf)
Метод сжатия : С потерями
Размер потока : 138 Мбайт (17%)
Язык : English
Default : Нет
Forced : Нет
Download / Скачать

Хотите скачать бесплатно? Зарегистрируйтесь на сайте (ссылка на регистрацию). Pirat.ca - самый быстрый торрент трекер в рунете!

Как скачивать  ·   Что такое торрент  ·   Рейтинг и ограничения

Пост 04-Май-2016 23:14 (спустя 2 часа 17 минут)

Топик был перенесен из форума Зарубежные сериалы (Трюм) в форум Зарубежные сериалы
kugesan
 
Показать сообщения:    
Ответить на тему

Текущее время: Сегодня 20:03

Часовой пояс: GMT + 4



Вы не можете начинать темы
Вы не можете отвечать на сообщения
Вы не можете редактировать свои сообщения
Вы не можете удалять свои сообщения
Вы не можете голосовать в опросах
Вы не можете прикреплять файлы к сообщениям
Вы не можете скачивать файлы

▼ Вниз