ML
     
  Уважаемый Гость!
Вы можете поддержать проект и зарегистрироваться у наших партнеров - онлайн-стратегия MyLands. При регистрации в игре Вы получите код, который сможете активировать после регистрации на pirat.ca и получить 1000 дублонов.

Ваш код:
5af7de75d3db09b6a37bc8bab71b0e87ccde73d6
 
     

Зоопарк в обувной коробке / Shoebox Zoo / Сезон: 1 / Серии: 1-13 из 13 (Джастин Молотников / Justin Molotnikov, ...) [2004 г., фэнтези, драма, приключения, семейный, DVDRip] MVO (ВГТРК, 2008)

Ответить на тему
 
Автор
Сообщение

Пост 12-Май-2016 18:58

[Q] 

somik

Легенда

-Зоопарк в обувной коробке / Shoebox Zoo-- Производство: Великобритания, Канада, Alberta Filmworks Inc., BBC Scotland, Blueprint Entertainment
Жанр: фэнтези, драма, приключения, семейный
Год выпуска: 2004 г.
Продолжительность: 00:24:24
Мировая премьера: 1 сентября 2004
Российская премьера: 13 января 2011, «Союз-Видео»
Перевод: Профессиональный (многоголосый, закадровый) [ВГТРК, 2008]
Режиссер: Джастин Молотников / Justin Molotnikov, ...-В ролях: Vivien Endicott Douglas, Jason Connery, Tony Donaldson, David McKay, Peter Mullan-Описание: На свой 11-й день рождения девочка Марни получает от таинственного старьевщика из антикварной лавки необычный подарок — игрушечных животных в обувной коробке. С этого момента в ее жизни начинают происходить самые настоящие чудеса. Однажды эти животные оживают и рассказывают Марни свою тайну: когда-то они были учениками великого мага, но попытались украсть волшебную Книгу Запретных Знаний и были за это заколдованы учителем. Теперь помочь животным может только Марни, но для этого ей придется найти ту самую волшебную книгу и избежать ловушек злого Толедо-оборотня, который давно мечтает найти этих заколдованных зверей.-
Качество видео: DVDRip
Контейнер: AVI
Видео кодек: XviD
Аудио кодек: MP3
Видео: 624x352 (1.77:1), 25 fps, XviD MPEG-4 ~1018 kbps avg, 0.19 bit/pixel
Аудио: 48 kHz, MPEG Layer 3, 2 ch, ~128.00 kbps avg
Cубтитры: отсутствуют
Зоопарк в обувной коробке (англ. Shoebox Zoo) — детский британский телесериал в жанре фэнтези телекомпании BBC Scotland, а также различных канадских телекомпаний. Был впервые показан в 2004 году по BBC One. Также был показан на Бибигоне, позже на Карусели.
На этом история Марни заканчивается. Но не совсем, ведь у хорошей истории должен быть хороший конец? (с)
Буду краткой.
ВВС всегда снимает качественные вещи. И этот серила не исключение. Скажу просто: смотрите! Детям особенно! Хороший сюжет и добрая сказка. Многому учит детей. А тому, кто любит магов, книги, игрушки, пейзажи Англии, прямая сюда дорога.
Предупрежу об одном: сама история о заколдованных игрушках не окончена. История Марни — да, логический конец встретила.
Закончу словами одной из заколдованных игрушек: «И что же делать дальше нам?»
Ответ на этот вопрос до сих пор не ясен, потому что два сезона только есть. Я очень надеюсь, что 4 игрушки всё-таки вернутся в свой истинный облик, что историю снимут до конца. Потому что будет обидно, если про такой интересный сюжет забудут.
9 из 10
Формат : AVI
Формат/Информация : Audio Video Interleave
Размер файла : 205 Мбайт
Продолжительность : 24 м.
Общий поток : 1157 Кбит/сек
Название фильма : Shoebox.Zoo.1x01.The.Magic.Is.Awakened.DVDRip
Видео
Идентификатор : 0
Формат : MPEG-4 Visual
Профиль формата : Advanced [email protected]
Параметр BVOP формата : 2
Параметр QPel формата : Нет
Параметр GMC формата : Без точки перехода
Параметр матрицы формата : Default (H.263)
Режим смешивания : Сжатый битовый поток
Идентификатор кодека : XVID
Идентификатор кодека/Подсказка : XviD
Продолжительность : 24 м.
Битрейт : 1019 Кбит/сек
Ширина : 624 пикселя
Высота : 352 пикселя
Соотношение сторон : 16:9
Частота кадров : 25,000 кадров/сек
Цветовое пространство : YUV
Субдискретизация насыщенности : 4:2:0
Битовая глубина : 8 бит
Тип развёртки : Прогрессивная
Метод сжатия : С потерями
Бит/(Пиксели*Кадры) : 0.186
Размер потока : 180 Мбайт (88%)
Библиотека кодирования : XviD 1.2.0.dev47 (UTC 2006-11-01)
Аудио
Идентификатор : 1
Формат : MPEG Audio
Версия формата : Version 1
Профиль формата : Layer 3
Режим : Joint stereo
Расширение режима : MS Stereo
Идентификатор кодека : 55
Идентификатор кодека/Подсказка : MP3
Продолжительность : 24 м.
Вид битрейта : Постоянный
Битрейт : 128 Кбит/сек
Каналы : 2 канала
Частота : 48,0 КГц
Метод сжатия : С потерями
Размер потока : 22,7 Мбайт (11%)
Выравнивание : Разделение по промежуткам
Продолжительность промежутка : 40 мс. (1,00 видеокадр)
Время предзагрузки промежутка : 500 мс.
Download / Скачать

Хотите скачать бесплатно? Зарегистрируйтесь на сайте (ссылка на регистрацию). Pirat.ca - самый быстрый торрент трекер в рунете!

Как скачивать  ·   Что такое торрент  ·   Рейтинг и ограничения

somik ®

Легенда

26788

Пост 12-Май-2016 19:06 (спустя 8 минут)

[Q] 

Только взрослый мог назвать фильм зоопарком - это Боги, это Волшебники, это Духи... Внимание: фильм имеет строгие возрастные рамки - -15, ca aa

_________________
Всё когда-нибудь уже было... В интернете!
[Профиль]  [ЛС] 
Показать сообщения:    
Ответить на тему

Текущее время: Сегодня 14:14

Часовой пояс: GMT + 4



Вы не можете начинать темы
Вы не можете отвечать на сообщения
Вы не можете редактировать свои сообщения
Вы не можете удалять свои сообщения
Вы не можете голосовать в опросах
Вы не можете прикреплять файлы к сообщениям
Вы не можете скачивать файлы

▼ Вниз