ML
     
  Уважаемый Гость!
Вы можете поддержать проект и зарегистрироваться у наших партнеров - онлайн-стратегия MyLands. При регистрации в игре Вы получите код, который сможете активировать после регистрации на pirat.ca и получить 1000 дублонов.

Ваш код:
11f49771fdf057c9d51610e4a0925c3b46ddb655
 
     

Зоопарк в обувной коробке / Shoebox Zoo / Сезон: 2 / Серии: 1-13 из 13 (Джастин Молотников / Justin Molotnikov, ...) [2005 г., фэнтези, драма, приключения, семейный, DVDRip] MVO (ВГТРК, 2008-09)

Ответить на тему
 
Автор
Сообщение

Пост 12-Май-2016 19:41

[Q] 

somik

Легенда

-Зоопарк в обувной коробке / Shoebox Zoo-- Производство: Великобритания, Канада, Alberta Filmworks Inc., BBC Scotland, Blueprint Entertainment
Жанр: фэнтези, драма, приключения, семейный
Год выпуска: 2005 г.
Продолжительность: 00:24:24
Мировая премьера: 16 октября 2005
Перевод: Профессиональный (многоголосый, закадровый) [ВГТРК, 2008-09]
Режиссер: Джастин Молотников / Justin Molotnikov, ...-В ролях: Vivien Endicott Douglas, Jason Connery, Tony Donaldson, David McKay, Peter Mullan-Описание: Девочка Марни получила в подарок на день рождения игрушечных животных в обувной коробке. Однажды они оживают и рассказывают ей свою тайну: когда-то они были учениками великого мага, но попытались украсть волшебную книгу и были за это заколдованы учителем. Теперь помочь животным может только Марни, но для этого ей придётся найти ту самую волшебную книгу и избежать ловушек злого Толедо-оборотня, который давно мечтает найти этих заколдованных зверей.-
Качество видео: DVDRip
Контейнер: AVI
Видео кодек: XviD
Аудио кодек: MP3
Видео: 640x360 (1.78:1), 25 fps, XviD MPEG-4 ~1199 kbps avg, 0.21 bit/pixel
Аудио: 48 kHz, MPEG Layer 3, 2 ch, ~128.00 kbps avg
Cубтитры: отсутствуют
Формат : AVI
Формат/Информация : Audio Video Interleave
Размер файла : 234 Мбайт
Продолжительность : 24 м.
Общий поток : 1337 Кбит/сек
Название фильма : Shoebox.Zoo.2x01.Across.the.Great.Ocean.DVDRip
Видео
Идентификатор : 0
Формат : MPEG-4 Visual
Профиль формата : [email protected]
Параметр BVOP формата : Нет
Параметр QPel формата : Нет
Параметр GMC формата : Без точки перехода
Параметр матрицы формата : Default (H.263)
Идентификатор кодека : XVID
Идентификатор кодека/Подсказка : XviD
Продолжительность : 24 м.
Битрейт : 1199 Кбит/сек
Ширина : 640 пикселей
Высота : 360 пикселей
Соотношение сторон : 16:9
Частота кадров : 25,000 кадров/сек
Цветовое пространство : YUV
Субдискретизация насыщенности : 4:2:0
Битовая глубина : 8 бит
Тип развёртки : Прогрессивная
Метод сжатия : С потерями
Бит/(Пиксели*Кадры) : 0.208
Размер потока : 210 Мбайт (90%)
Библиотека кодирования : Magic0432
Аудио
Идентификатор : 1
Формат : MPEG Audio
Версия формата : Version 1
Профиль формата : Layer 3
Режим : Joint stereo
Расширение режима : MS Stereo
Идентификатор кодека : 55
Идентификатор кодека/Подсказка : MP3
Продолжительность : 24 м.
Вид битрейта : Постоянный
Битрейт : 128 Кбит/сек
Каналы : 2 канала
Частота : 48,0 КГц
Метод сжатия : С потерями
Размер потока : 22,4 Мбайт (10%)
Выравнивание : Разделение по промежуткам
Продолжительность промежутка : 40 мс. (1,00 видеокадр)
Время предзагрузки промежутка : 500 мс.
Download / Скачать

Хотите скачать бесплатно? Зарегистрируйтесь на сайте (ссылка на регистрацию). Pirat.ca - самый быстрый торрент трекер в рунете!

Как скачивать  ·   Что такое торрент  ·   Рейтинг и ограничения

Показать сообщения:    
Ответить на тему

Текущее время: Сегодня 03:09

Часовой пояс: GMT + 4



Вы не можете начинать темы
Вы не можете отвечать на сообщения
Вы не можете редактировать свои сообщения
Вы не можете удалять свои сообщения
Вы не можете голосовать в опросах
Вы не можете прикреплять файлы к сообщениям
Вы не можете скачивать файлы

▼ Вниз