ML
     
  Уважаемый Гость!
Вы можете поддержать проект и зарегистрироваться у наших партнеров - онлайн-стратегия MyLands. При регистрации в игре Вы получите код, который сможете активировать после регистрации на pirat.ca и получить 1000 дублонов.

Ваш код:
a978488e62322cd72e113ab723b8a7fdc10eb9b9
 
     

Вспомнить всё / Total Recall 2070 / Сезон: 1 / Серии: 1-22 из 22 (Марио Аццопарди / Mario Azzopardi, ...) [1999 г., фантастика, DVDRip] MVO (НоваФильм)

Ответить на тему
 
Автор
Сообщение

Пост 13-Май-2016 17:33

[Q] 

somik

Легенда

-Вспомнить всё / Total Recall 2070-- Производство: США, Германия, Канада, Alliance Atlantis Communications, PolyGram Television, Pro 7, ProSieben Television, Screenventures XXXVI Productions, TEAM Communications Group, ...
Жанр: фантастика
Год выпуска: 1999 г.
Продолжительность: 00:44:44
Мировая премьера: 5 января 1999
Перевод: Профессиональный (многоголосый, закадровый) [НоваФильм]
Режиссер: Марио Аццопарди / Mario Azzopardi, ...-В ролях: Майкл Истон, Карл Прюнер, Майкл Роулинз, Мэттью Беннетт, Синтия Престон, Дэймон Д’Оливера, Джон Бекавас, Энн Мари Лодер, Питер Фёрт-Описание: 2070 год. Планета Земля управляется единым правительством. А Марс и некоторые другие планеты давно колонизированы. Манипуляции с памятью людей стали частью повседневной жизни и новым массовым наркотиком. Распутывая сложнейшие преступления, полицейский Дэвид Хьюм и его напарник-андроид Ян Фарв противостоят хакерам и технонаркоманам, андроидам-предателям и могущественным корпорациям. Чтобы защитить закон и остаться в живых, им часто приходится играть не по правилам...-
Качество видео: DVDRip
Контейнер: AVI
Видео кодек: XviD
Аудио кодек: MP3
Видео: 512x384 (1.33:1), 23.976 fps, XviD MPEG-4 ~996 kbps avg, 0.21 bit/pixel
Аудио: 48 kHz, MPEG Layer 3, 2 ch, ~128.00 kbps avg
Аудио #2: 48 kHz, MPEG Layer 3, 2 ch, ~128.00 kbps avg
Cубтитры: отсутствуют
Главный персонаж получил имя в честь английского философа Дэвида Хьюма. Примечательно, что похожее имя, Десмонд Дэвид Хьюм, носит один из персонажей телесериала «Остаться в живых», также получивший это имя в честь философа.
В телесериале были использованы некоторые фрагменты фильма Пола Верховена «Вспомнить всё».
«Вспомнить всё» я посмотрел подростком. И до сих пор помню, что выйдя за дверь рублевого видеосалона я подумал: «Вот бы про этот мир снять многосерийный фильм»! Тогда я не знал слова «сериал». А девять лет спустя моя мечта сбылась.
«Вспомнить всё 2070» не связан напрямую с событиями фильма. Это абсолютно самостоятельная история, а точнее цепь историй, в антураже и цветовой гамме оригинального фильма и с немалым числом идей взятых из «Бегущего по лезвию»(что вполне логично — учитывая литературные корни Total Recall и Blade Runner). Детектив составляет основу сюжета, в котором андроид-полицейский Ян Фарв становится напарником человека-полицейского Дэвида Хьюма. Наблюдать за этой парочкой одно удовольствие, тем более, что их игра заставляет не обращать внимание на некоторую «камерность» сериала. Конечно сейчас во «Вспомнить всё 2070» можно найти ещё пару недочётов, но делать это абсолютно не хочется. Детективная составляющая сериала хороша, актёры на своих местах, смотреть на Синтию Престон в роли Оливии Хьюм сплошное удовольствие, а возможность ещё раз окунуться в атмосферу оригинального фильма дорогого стоит.
Что ещё нужно для полного счастья?!
10 из 10
Формат : AVI
Формат/Информация : Audio Video Interleave
Размер файла : 398 Мбайт
Продолжительность : 43 м.
Общий поток : 1267 Кбит/сек
Название фильма : total_recall_2070.s01e01.rus.eng.dvdrip.novafilm
Программа кодирования : VirtualDubMod 1.5.10.2 (build 2542/release)
Видео
Идентификатор : 0
Формат : MPEG-4 Visual
Профиль формата : Advanced [email protected]
Параметр BVOP формата : 2
Параметр QPel формата : Нет
Параметр GMC формата : Без точки перехода
Параметр матрицы формата : Default (H.263)
Режим смешивания : Сжатый битовый поток
Идентификатор кодека : XVID
Идентификатор кодека/Подсказка : XviD
Продолжительность : 43 м.
Битрейт : 997 Кбит/сек
Ширина : 512 пикселей
Высота : 384 пикселя
Соотношение сторон : 4:3
Частота кадров : 23,976 (23976/1000) кадра/сек
Цветовое пространство : YUV
Субдискретизация насыщенности : 4:2:0
Битовая глубина : 8 бит
Тип развёртки : Прогрессивная
Метод сжатия : С потерями
Бит/(Пиксели*Кадры) : 0.212
Размер потока : 314 Мбайт (79%)
Библиотека кодирования : XviD 1.1.2 (UTC 2006-11-01)
Аудио #1
Идентификатор : 1
Формат : MPEG Audio
Версия формата : Version 1
Профиль формата : Layer 3
Режим : Joint stereo
Расширение режима : MS Stereo
Идентификатор кодека : 55
Идентификатор кодека/Подсказка : MP3
Продолжительность : 43 м.
Вид битрейта : Постоянный
Битрейт : 128 Кбит/сек
Каналы : 2 канала
Частота : 48,0 КГц
Метод сжатия : С потерями
Размер потока : 40,3 Мбайт (10%)
Выравнивание : Соединение по промежуткам
Продолжительность промежутка : 42 мс. (1,00 видеокадр)
Время предзагрузки промежутка : 504 мс.
Аудио #2
Идентификатор : 2
Формат : MPEG Audio
Версия формата : Version 1
Профиль формата : Layer 3
Режим : Joint stereo
Идентификатор кодека : 55
Идентификатор кодека/Подсказка : MP3
Продолжительность : 43 м.
Вид битрейта : Постоянный
Битрейт : 128 Кбит/сек
Каналы : 2 канала
Частота : 48,0 КГц
Метод сжатия : С потерями
Размер потока : 40,3 Мбайт (10%)
Выравнивание : Соединение по промежуткам
Продолжительность промежутка : 42 мс. (1,00 видеокадр)
Время предзагрузки промежутка : 504 мс.
Download / Скачать

Хотите скачать бесплатно? Зарегистрируйтесь на сайте (ссылка на регистрацию). Pirat.ca - самый быстрый торрент трекер в рунете!

Как скачивать  ·   Что такое торрент  ·   Рейтинг и ограничения

raul kurochka

Корсар

Пост 16-Май-2016 00:47 (спустя 2 дня 7 часов)

[Q] 

Спс! Заценим сей изврат)))
Лови бочку

_________________
...ЧО ТАКОЙ СЕРЬЕЗНЫЙ???
[Профиль]  [ЛС] 

DDoS55

Флибустьер

2241

Пост 19-Май-2016 03:08 (спустя 3 дня)

[Q] 

Посмотрим что там в 2070-ом твориться.

_________________
включайте в торрент клиенте: DHT, обмен пирами, шифрование, ip-фильтр
[Профиль]  [ЛС] 
Показать сообщения:    
Ответить на тему

Текущее время: Сегодня 22:11

Часовой пояс: GMT + 4



Вы не можете начинать темы
Вы не можете отвечать на сообщения
Вы не можете редактировать свои сообщения
Вы не можете удалять свои сообщения
Вы не можете голосовать в опросах
Вы не можете прикреплять файлы к сообщениям
Вы не можете скачивать файлы

▼ Вниз