ML
     
  Уважаемый Гость!
Вы можете поддержать проект и зарегистрироваться у наших партнеров - онлайн-стратегия MyLands. При регистрации в игре Вы получите код, который сможете активировать после регистрации на pirat.ca и получить 1000 дублонов.

Ваш код:
a01a592a88af5f9996a6d1baec61b18a1769954d
 
     

Доктор Блейк / The Doctor Blake Mysteries / Сезон: 1 / Серии: 1-10 из 10 (Деклан Имис / Declan Eames, ...) [2013 г., детектив, PDTV-Rip] MVO [+ Original (Eng)]

Ответить на тему
 
Автор
Сообщение

Пост 16-Май-2016 00:00

[Q] 

somik

Легенда

-Доктор Блейк / The Doctor Blake Mysteries-- Производство: Австралия, December Media
Жанр: детектив
Год выпуска: 2013 г.
Продолжительность: 00:55:00
Мировая премьера: 01 февраля 2013
Перевод: Любительский (многоголосый, закадровый)
Оригинальный аудиопоток: английский
Режиссер: Деклан Имис / Declan Eames, ...-В ролях: Craig McLachlan, Nadine Garner, Rick Donald, Cate Wolfe, Joel Tobeck...-Описание: Доктор Люсьен Блейк покинул родной городок Балларат ещё молодым. Сейчас он возвращается в него, чтобы унаследовать медицинскую практику своего упокоившегося отца с вызовами на места преступления. В 1959-ом году богатств времён золотой лихорадки, которой он обязан своей роскошной архитектурой, в городе давно нет. Но тайны, убийства и обман, остались ещё со времён его былой славы.-
Качество видео: PDTV-Rip
Контейнер: AVI
Видео кодек: XviD
Аудио кодек: MP3
Видео: 640x352 (1.82:1), 25 fps, XviD build 63 ~1014 kbps avg, 0.18 bit/pixel
Аудио: 48 kHz, MPEG Layer 3, 2 ch, ~192.00 kbps avg
Аудио #2: 48 kHz, MPEG Layer 3, 2 ch, ~192.00 kbps avg
Cубтитры: отсутствуют
«The Doctor Blake Mysteries» — мое первое знакомство с австралийским кинематографом, и, надо заметить, приятное и запоминающееся.
Главный герой, чьим именем, собственно, и назван сериал — бывший солдат с тяжелым багажом прошлого, переживающий страшную утрату, и, наверное, поэтому, отчасти закрытый человек, не замечающий любви рядом с собой, порой равнодушный и заставляющий страдать других. Практикующий врач и патологоанатом в отделении полиции небольшого австралийского городка, разгадывающий загадочные преступления, ищущий справедливости, не терпящий лицемерия…
Абсолютное ощущение, что фильм снят в то время, в котором и разворачиваются события, атмосфера пятидесятых годов двадцатого столетия передана очень точно. Игра актеров на высоте. Поворот сюжета порой предсказуем, но лишь в мелочах, и это нисколько не портит впечатления от просмотра. Интересно идти по следу вместе со следствием, а ответ на вопрос: «А кто же убийца?» порой остается открытым до конца серии.
Подводя итог, хочется сказать, что этот фильм стоит посмотреть однозначно!
P.S: Саундтрек необыкновенно хорош.
Формат : AVI
Формат/Информация : Audio Video Interleave
Размер файла : 543 Мбайт
Продолжительность : 53 м.
Общий поток : 1414 Кбит/сек
Программа кодирования : VirtualDubModRus 1.5.10.2 (build 2542/release)
Библиотека кодирования : VirtualDubMod build 2542/release
Видео
Идентификатор : 0
Формат : MPEG-4 Visual
Профиль формата : Advanced [email protected]
Параметр BVOP формата : 2
Параметр QPel формата : Нет
Параметр GMC формата : Без точки перехода
Параметр матрицы формата : Default (H.263)
Режим смешивания : Сжатый битовый поток
Идентификатор кодека : XVID
Идентификатор кодека/Подсказка : XviD
Продолжительность : 53 м.
Битрейт : 1015 Кбит/сек
Ширина : 640 пикселей
Высота : 352 пикселя
Соотношение сторон : 16:9
Частота кадров : 25,000 кадров/сек
Цветовое пространство : YUV
Субдискретизация насыщенности : 4:2:0
Битовая глубина : 8 бит
Тип развёртки : Прогрессивная
Метод сжатия : С потерями
Бит/(Пиксели*Кадры) : 0.180
Размер потока : 390 Мбайт (72%)
Библиотека кодирования : XviD 63
Аудио #1
Идентификатор : 1
Формат : MPEG Audio
Версия формата : Version 1
Профиль формата : Layer 3
Идентификатор кодека : 55
Идентификатор кодека/Подсказка : MP3
Продолжительность : 53 м.
Вид битрейта : Постоянный
Битрейт : 192 Кбит/сек
Каналы : 2 канала
Частота : 48,0 КГц
Метод сжатия : С потерями
Размер потока : 73,7 Мбайт (14%)
Выравнивание : Соединение по промежуткам
Продолжительность промежутка : 40 мс. (1,00 видеокадр)
Время предзагрузки промежутка : 504 мс.
Аудио #2
Идентификатор : 2
Формат : MPEG Audio
Версия формата : Version 1
Профиль формата : Layer 3
Идентификатор кодека : 55
Идентификатор кодека/Подсказка : MP3
Продолжительность : 53 м.
Вид битрейта : Постоянный
Битрейт : 192 Кбит/сек
Каналы : 2 канала
Частота : 48,0 КГц
Метод сжатия : С потерями
Размер потока : 73,7 Мбайт (14%)
Выравнивание : Соединение по промежуткам
Продолжительность промежутка : 40 мс. (1,00 видеокадр)
Время предзагрузки промежутка : 504 мс.
Download / Скачать

Хотите скачать бесплатно? Зарегистрируйтесь на сайте (ссылка на регистрацию). Pirat.ca - самый быстрый торрент трекер в рунете!

Как скачивать  ·   Что такое торрент  ·   Рейтинг и ограничения

Показать сообщения:    
Ответить на тему

Текущее время: Сегодня 09:45

Часовой пояс: GMT + 4



Вы не можете начинать темы
Вы не можете отвечать на сообщения
Вы не можете редактировать свои сообщения
Вы не можете удалять свои сообщения
Вы не можете голосовать в опросах
Вы не можете прикреплять файлы к сообщениям
Вы не можете скачивать файлы

▼ Вниз