ML
     
  Уважаемый Гость!
Вы можете поддержать проект и зарегистрироваться у наших партнеров - онлайн-стратегия MyLands. При регистрации в игре Вы получите код, который сможете активировать после регистрации на pirat.ca и получить 1000 дублонов.

Ваш код:
5af7de75d3db09b6a37bc8bab71b0e87ccde73d6
 
     

Доктор Блейк / The Doctor Blake Mysteries / Сезон: 2 / Серии: 1-10 из 10 (Деклан Имис / Declan Eames, ...) [2014 г., детектив, WEB-DLRip] MVO (DreamRecords)

Ответить на тему
 
Автор
Сообщение

Пост 16-Май-2016 00:18

[Q] 

somik

Легенда

-Доктор Блейк / The Doctor Blake Mysteries-- Производство: Австралия, December Media
Жанр: детектив
Год выпуска: 2014 г.
Продолжительность: 00:55:00
Мировая премьера: 07 февраля 2014
Перевод: Профессиональный (многоголосый, закадровый) [DreamRecords]
Режиссер: Деклан Имис / Declan Eames, ...-В ролях: Craig McLachlan, Nadine Garner, Rick Donald, Cate Wolfe, Joel Tobeck...-Описание: Доктор Люсьен Блейк покинул родной городок Балларат ещё молодым. Сейчас он возвращается в него, чтобы унаследовать медицинскую практику своего упокоившегося отца с вызовами на места преступления. В 1959-ом году богатств времён золотой лихорадки, которой он обязан своей роскошной архитектурой, в городе давно нет, но тайны, убийства и обман, остались ещё со времён его былой славы.-
Качество видео: WEB-DLRip
Контейнер: AVI
Видео кодек: XviD
Аудио кодек: MP3
Видео: 720x400 (1.80:1), 25 fps, XviD MPEG-4 ~1292 kbps avg, 0.18 bit/pixel
Аудио: 48 kHz, MPEG Layer 3, 2 ch, ~192.00 kbps avg
Cубтитры: отсутствуют
Формат : AVI
Формат/Информация : Audio Video Interleave
Размер файла : 606 Мбайт
Продолжительность : 56 м.
Общий поток : 1494 Кбит/сек
Название фильма : The.Doctor.Blake.Mysteries.S02E01 - [DreamRecords]
Программа кодирования : VirtualDubModRus 1.5.10.2 (build 2542/release)
Видео
Идентификатор : 0
Формат : MPEG-4 Visual
Профиль формата : Advanced [email protected]
Параметр BVOP формата : 1
Параметр QPel формата : Нет
Параметр GMC формата : Без точки перехода
Параметр матрицы формата : Default (MPEG)
Идентификатор кодека : XVID
Идентификатор кодека/Подсказка : XviD
Продолжительность : 56 м.
Битрейт : 1292 Кбит/сек
Ширина : 720 пикселей
Высота : 400 пикселей
Соотношение сторон : 16:9
Частота кадров : 25,000 кадров/сек
Цветовое пространство : YUV
Субдискретизация насыщенности : 4:2:0
Битовая глубина : 8 бит
Тип развёртки : Прогрессивная
Метод сжатия : С потерями
Бит/(Пиксели*Кадры) : 0.179
Размер потока : 524 Мбайт (86%)
Библиотека кодирования : XviD 64
Аудио
Идентификатор : 1
Формат : MPEG Audio
Версия формата : Version 1
Профиль формата : Layer 3
Режим : Joint stereo
Идентификатор кодека : 55
Идентификатор кодека/Подсказка : MP3
Продолжительность : 56 м.
Вид битрейта : Постоянный
Битрейт : 192 Кбит/сек
Каналы : 2 канала
Частота : 48,0 КГц
Метод сжатия : С потерями
Размер потока : 77,9 Мбайт (13%)
Выравнивание : Соединение по промежуткам
Продолжительность промежутка : 40 мс. (1,00 видеокадр)
Время предзагрузки промежутка : 504 мс.
Download / Скачать

Хотите скачать бесплатно? Зарегистрируйтесь на сайте (ссылка на регистрацию). Pirat.ca - самый быстрый торрент трекер в рунете!

Как скачивать  ·   Что такое торрент  ·   Рейтинг и ограничения

Показать сообщения:    
Ответить на тему

Текущее время: Сегодня 14:10

Часовой пояс: GMT + 4



Вы не можете начинать темы
Вы не можете отвечать на сообщения
Вы не можете редактировать свои сообщения
Вы не можете удалять свои сообщения
Вы не можете голосовать в опросах
Вы не можете прикреплять файлы к сообщениям
Вы не можете скачивать файлы

▼ Вниз