ML
     
  Уважаемый Гость!
Вы можете поддержать проект и зарегистрироваться у наших партнеров - онлайн-стратегия MyLands. При регистрации в игре Вы получите код, который сможете активировать после регистрации на pirat.ca и получить 1000 дублонов.

Ваш код:
ea554e7ed3eacceeae87a8b30a9de3f086c18a84
 
     

Зов крови / Lost Girl / Сезон: 3 / Серии: 1-13 из 13 (Стив ДиМарко / Steve DiMarco, ...) [2013 г., фэнтези, HDRip] MVO (to4ka)

Ответить на тему
 
Автор
Сообщение

Пост 16-Май-2016 03:47

[Q] 

somik

Легенда

-Зов крови / Lost Girl-- Производство: Канада, Bo Series, Prodigy Pictures
Жанр: фэнтези
Год выпуска: 2013 г.
Продолжительность: 00:43:00
Мировая премьера: 6 января 2013
Перевод: Любительский (многоголосый, закадровый) [to4ka]
Режиссер: Стив ДиМарко / Steve DiMarco, ...-В ролях: Анна Силк, Кристен Холден-Рид, Ксения Соло, Ричард Хоуланд, Зои Палмер, К.К. Коллинз, Рэйчел Скарстен, Пол Амос, Винсент Уолш, Эммануэль Вожье-Описание: Бо — суккуб. Выросшая в человеческой семье она не знала о своей истинной природе, считая себя фриком, а неумение контролировать сверхъестественный голод сделало ее одинокой беглянкой, оставляющей после себя череду трупов. Все меняется, когда Бо попадает в поле зрения кланов Фэйри, объяснивших ей кто она. Не желая выбирать между кланами Света и Тьмы, Бо решает занять сторону людей. Ей помогают юная русская воровка Кензи, детектив-оборотень Дайсон и доктор Лорен, занимающаяся изучением Фэйри.-
Качество видео: HDRip
Контейнер: AVI
Видео кодек: XviD
Аудио кодек: MP3
Видео: 720x400 (1.80:1), 23.976 fps, XviD MPEG-4 ~1156 kbps avg, 0.17 bit/pixel A
Аудио: 48 kHz, MPEG Layer 3, 2 ch, ~128.00 kbps avg
Аудио #2: 48 kHz, MPEG Layer 3, 2 ch, ~128.00 kbps avg
Cубтитры: отсутствуют
Тьма или Свет?
Испокон веков шла борьба — добра и зла, света и тьмы. Но вот поворот появляется нейтрал который хочет все изменить, и не собирается принимать какую либо сторону.
Дружит конечно больше со светлыми, но и про темных не забывает.
Сексуальная Бо и ее подручная «человечишка» Кензи… горячий волк и добрая докторша-лесбиянка…
Сериал по своей сути однотипен Сверхъестественному, Гримму, Дневникам вампиров и огромному его множеству… НО в нем есть какая то изюминка, которая заставляет продолжать смотреть его дальше.
Актеры играют не хуже многих хороших сериалов, эффекты очень хороши, в целом он хорош, и достоин просмотра.
В общем «Зов крови» достоин просмотра, но только в перерывах ожидания выхода серий своего любимого сериала.
8 из 10
Формат : AVI
Формат/Информация : Audio Video Interleave
Размер файла : 450 Мбайт
Продолжительность : 44 м.
Общий поток : 1427 Кбит/сек
Название фильма : lost.girl.s03e01.hdrip.rus.eng.to4ka
Программа кодирования : VirtualDubMod 1.6.0.0 SURROUND (build 2560/release)
Видео
Идентификатор : 0
Формат : MPEG-4 Visual
Профиль формата : Advanced [email protected]
Параметр BVOP формата : 1
Параметр QPel формата : Нет
Параметр GMC формата : Без точки перехода
Параметр матрицы формата : Default (MPEG)
Идентификатор кодека : XVID
Идентификатор кодека/Подсказка : XviD
Продолжительность : 44 м.
Битрейт : 1157 Кбит/сек
Ширина : 720 пикселей
Высота : 400 пикселей
Соотношение сторон : 16:9
Частота кадров : 23,976 (23976/1000) кадра/сек
Цветовое пространство : YUV
Субдискретизация насыщенности : 4:2:0
Битовая глубина : 8 бит
Тип развёртки : Прогрессивная
Метод сжатия : С потерями
Бит/(Пиксели*Кадры) : 0.168
Размер потока : 365 Мбайт (81%)
Библиотека кодирования : XviD 64
Аудио #1
Идентификатор : 1
Формат : MPEG Audio
Версия формата : Version 1
Профиль формата : Layer 3
Режим : Joint stereo
Расширение режима : MS Stereo
Идентификатор кодека : 55
Идентификатор кодека/Подсказка : MP3
Продолжительность : 44 м.
Вид битрейта : Постоянный
Битрейт : 128 Кбит/сек
Каналы : 2 канала
Частота : 48,0 КГц
Метод сжатия : С потерями
Размер потока : 40,4 Мбайт (9%)
Выравнивание : Соединение по промежуткам
Продолжительность промежутка : 42 мс. (1,00 видеокадр)
Время предзагрузки промежутка : 504 мс.
Аудио #2
Идентификатор : 2
Формат : MPEG Audio
Версия формата : Version 1
Профиль формата : Layer 3
Режим : Joint stereo
Расширение режима : MS Stereo
Идентификатор кодека : 55
Идентификатор кодека/Подсказка : MP3
Продолжительность : 44 м.
Вид битрейта : Постоянный
Битрейт : 128 Кбит/сек
Каналы : 2 канала
Частота : 48,0 КГц
Метод сжатия : С потерями
Размер потока : 40,4 Мбайт (9%)
Выравнивание : Разделение по промежуткам
Продолжительность промежутка : 42 мс. (1,00 видеокадр)
Время предзагрузки промежутка : 500 мс.
Download / Скачать

Хотите скачать бесплатно? Зарегистрируйтесь на сайте (ссылка на регистрацию). Pirat.ca - самый быстрый торрент трекер в рунете!

Как скачивать  ·   Что такое торрент  ·   Рейтинг и ограничения

Показать сообщения:    
Ответить на тему

Текущее время: Сегодня 12:10

Часовой пояс: GMT + 4



Вы не можете начинать темы
Вы не можете отвечать на сообщения
Вы не можете редактировать свои сообщения
Вы не можете удалять свои сообщения
Вы не можете голосовать в опросах
Вы не можете прикреплять файлы к сообщениям
Вы не можете скачивать файлы

▼ Вниз