ML
     
  Уважаемый Гость!
Вы можете поддержать проект и зарегистрироваться у наших партнеров - онлайн-стратегия MyLands. При регистрации в игре Вы получите код, который сможете активировать после регистрации на pirat.ca и получить 1000 дублонов.

Ваш код:
47bfc18b89c74e4ae0d974e9b6943639e2bff08e
 
     

Галавант / Galavant / Сезон: 1 / Серии: 1-8 из 8 (Джон Фортенберри / John Fortenberry, ...) [2015 г., мюзикл, комедия, приключения,, фэнтези, WEB-DLRip] MVO + Sub (на песни, неотключаемые)

Ответить на тему
 
Автор
Сообщение

Пост 23-Май-2016 03:59

[Q] 

somik

Легенда

-Галавант / Galavant-- Производство: США, ABC Studios, Rhode Island Ave. Productions
Жанр: мюзикл, комедия, приключения, , фэнтези
Год выпуска: 2015 г.
Продолжительность: 00:22:00
Мировая премьера: 4 января 2015
Перевод: Любительский (многоголосый, закадровый)
Режиссер: Джон Фортенберри / John Fortenberry, ...-В ролях: Джошуа Зассе (Galavant), Тимоти Омандсон (King Richard), Винни Джонс (Gareth), Мэллори Джэнсен (Madalena), Карен Дэвид (Isabella), Люк Янблад (Sid), Даррен Эванс (Chef), Бен Прэсли (Jester), Стэнли Таунсенд (King of Valencia), Genevieve Allenbury (Queen of Valencia), Кеннет Коллар (Dimwit Squire), Эндрю Эблесон-Описание: История о рыцаре Галаванте и злом короле Ричарде, который похищает его возлюбленную, после чего герой начинает мстить своему врагу.-
Качество видео: WEB-DLRip
Контейнер: AVI
Видео кодек: XviD
Аудио кодек: AC3
Видео: 720x400 (1.80:1), 23.976 fps, XviD build 73 ~1499 kbps avg, 0.22 bit/pixel
Аудио: 48 kHz, MPEG Layer 3, 2 ch, ~192.00 kbps avg
Cубтитры: на песни - хасбад
Восхитительно, неотразимо, эпично, радостно-смехотворно — такие эпитеты пишет американская пресса про новый восьмисерийный комедийный сериал «Galavant» от ABC и они правы, это лучшее что я видел за последние время. Замечательный сплав героической диснеевской сказки и остроумной пародии на нее же. Изумительные музыкальные номера, музыку к которым написал Алан Менкен (на счету которого 8 премий Оскар). Прекрасно подобранные актеры, которые чудесно поют. На текущий момент вышли все восемь серий, в сети есть несколько версии: оригинал; субтитры на песни и дубляж простого действия; полный дубляж (который я очень не рекомендую смотреть, так как теряется все очарование музыкальных номеров). Так кто у Вас только два первых варианта или лучше не смотреть.
п. с. сразу после просмотра я скачал все песни это уморительно.
10 из 10
Формат : AVI
Формат/Информация : Audio Video Interleave
Размер файла : 262 Мбайт
Продолжительность : 21 м.
Общий поток : 1701 Кбит/сек
Название фильма : Galavant.S01E01.WEB-DLRip.[pirat.ca]
Программа кодирования : VirtualDubMod 1.5.10.3 | www.virtualdub-fr.org || (build 2550/release)
Видео
Идентификатор : 0
Формат : MPEG-4 Visual
Профиль формата : Advanced [email protected]
Параметр BVOP формата : 1
Параметр QPel формата : Нет
Параметр GMC формата : Без точки перехода
Параметр матрицы формата : Default (MPEG)
Идентификатор кодека : XVID
Идентификатор кодека/Подсказка : XviD
Продолжительность : 21 м.
Битрейт : 1500 Кбит/сек
Ширина : 720 пикселей
Высота : 400 пикселей
Соотношение сторон : 16:9
Частота кадров : 23,976 (23976/1000) кадра/сек
Цветовое пространство : YUV
Субдискретизация насыщенности : 4:2:0
Битовая глубина : 8 бит
Тип развёртки : Прогрессивная
Метод сжатия : С потерями
Бит/(Пиксели*Кадры) : 0.217
Размер потока : 231 Мбайт (88%)
Библиотека кодирования : XviD 73
Аудио
Идентификатор : 1
Формат : MPEG Audio
Версия формата : Version 1
Профиль формата : Layer 3
Идентификатор кодека : 55
Идентификатор кодека/Подсказка : MP3
Продолжительность : 21 м.
Вид битрейта : Постоянный
Битрейт : 192 Кбит/сек
Каналы : 2 канала
Частота : 48,0 КГц
Метод сжатия : С потерями
Размер потока : 29,6 Мбайт (11%)
Выравнивание : Соединение по промежуткам
Продолжительность промежутка : 42 мс. (1,00 видеокадр)
Время предзагрузки промежутка : 504 мс.
Библиотека кодирования : LAME3.99r
Настройки программы : -m s -V 4 -q 0 -lowpass 18.6 -b 192
Download / Скачать

Хотите скачать бесплатно? Зарегистрируйтесь на сайте (ссылка на регистрацию). Pirat.ca - самый быстрый торрент трекер в рунете!

Как скачивать  ·   Что такое торрент  ·   Рейтинг и ограничения

Пост 23-Май-2016 05:49 (спустя 1 час 49 минут)

Топик был перенесен из форума Зарубежные сериалы (Трюм) в форум Зарубежные сериалы
Андря
 
Показать сообщения:    
Ответить на тему

Текущее время: Сегодня 07:01

Часовой пояс: GMT + 4



Вы не можете начинать темы
Вы не можете отвечать на сообщения
Вы не можете редактировать свои сообщения
Вы не можете удалять свои сообщения
Вы не можете голосовать в опросах
Вы не можете прикреплять файлы к сообщениям
Вы не можете скачивать файлы

▼ Вниз