ML
     
  Уважаемый Гость!
Вы можете поддержать проект и зарегистрироваться у наших партнеров - онлайн-стратегия MyLands. При регистрации в игре Вы получите код, который сможете активировать после регистрации на pirat.ca и получить 1000 дублонов.

Ваш код:
ea554e7ed3eacceeae87a8b30a9de3f086c18a84
 
     

Арабела возвращается или Румбурак король страны сказок / Arabela se vraci aneb Rumburak kralem rise pohadek / Сезон: 1 / Серии: 1-26 из 26 (Вацлав Ворличек / Václav Vorlícek) [1993 г., фэнтези, комедия, семейный, SATRip] MVO

Ответить на тему
 
Автор
Сообщение

Пост 23-Май-2016 10:29

[Q] 

somik

Легенда

-Арабела возвращается или Румбурак король страны сказок / Arabela se vraci aneb Rumburak kralem rise pohadek-- Производство: Чехословакия, Ceská Televize, Westdeutscher Rundfunk (WDR)
Жанр: фэнтези, комедия, семейный
Год выпуска: 1993 г.
Продолжительность: 00:28:00
Мировая премьера: 28 ноября 1994
Перевод: Профессиональный (многоголосый, закадровый)
Режиссер: Вацлав Ворличек / Václav Vorlícek-В ролях: Владимир Длоуги, Илья Рацек, Иржи Лабус, Ондржей Кепка, Гана Шевчикова, Мирослава Шафранкова, Дагмар Патрасова, Петр Нарожны, Павел Зедничек, Мариан Лабуда-Описание: В мир людей из страны сказок, прибыла Роксана, со своими волшебными духами. С их помощью, она уже вскружила голову многим мужчинам, включая Румбурака. Роксана нашла приют у чародейки, соседки Петра и Арабелы. Петр и Арабела работают у короля игрушек пана Паппа. А за их странными детьми присматривает сосед, сторож музея. Волшебный плащ, в котором прилетела Роксана, очень нужен Гонзику и Марженке. Они хотят посетить страну сказок, с научной целью. Ребята обещают Петру, что похлопочут о том, чтобы его усатые сыновья стали нормальными детьми. Они не знают что творится в стране сказок, и не знают о великане. И о том что последним, на кого упал жребий, был сам король.-
Качество видео: SATRip
Контейнер: AVI
Видео кодек: XviD
Аудио кодек: MP3
Видео: 544x416 (1.31:1), 25 fps, XviD 1.2 beta 1 (build 43) ~1591 kbps avg, 0.28 bit/pixel
Аудио: 48 kHz, MPEG Layer 3, 2 ch, ~224.00 kbps avg
Cубтитры: отсутствуют
Формат : AVI
Формат/Информация : Audio Video Interleave
Размер файла : 406 Мбайт
Продолжительность : 28 м.
Общий поток : 2023 Кбит/сек
Название фильма : arabela_se_vraci_ep1
Программа кодирования : VirtualDubMod 1.5.10.2 (build 2542/release)
Видео
Идентификатор : 0
Формат : MPEG-4 Visual
Профиль формата : Advanced [email protected]
Параметр BVOP формата : 1
Параметр QPel формата : Нет
Параметр GMC формата : Без точки перехода
Параметр матрицы формата : Выборочная
Идентификатор кодека : XVID
Идентификатор кодека/Подсказка : XviD
Продолжительность : 28 м.
Битрейт : 1593 Кбит/сек
Ширина : 544 пикселя
Высота : 416 пикселей
Соотношение сторон : 4:3
Частота кадров : 25,000 кадров/сек
Цветовое пространство : YUV
Субдискретизация насыщенности : 4:2:0
Битовая глубина : 8 бит
Тип развёртки : Прогрессивная
Метод сжатия : С потерями
Бит/(Пиксели*Кадры) : 0.282
Размер потока : 320 Мбайт (79%)
Библиотека кодирования : XviD 1.2.0SMP (UTC 2006-01-08)
Аудио #1
Идентификатор : 1
Формат : MPEG Audio
Версия формата : Version 1
Профиль формата : Layer 3
Идентификатор кодека : 55
Идентификатор кодека/Подсказка : MP3
Продолжительность : 28 м.
Вид битрейта : Постоянный
Битрейт : 224 Кбит/сек
Каналы : 2 канала
Частота : 48,0 КГц
Метод сжатия : С потерями
Размер потока : 45,0 Мбайт (11%)
Выравнивание : Разделение по промежуткам
Продолжительность промежутка : 40 мс. (1,00 видеокадр)
Время предзагрузки промежутка : 500 мс.
Аудио #2
Идентификатор : 2
Формат : MPEG Audio
Версия формата : Version 1
Профиль формата : Layer 3
Режим : Joint stereo
Расширение режима : MS Stereo
Идентификатор кодека : 55
Идентификатор кодека/Подсказка : MP3
Продолжительность : 28 м.
Вид битрейта : Постоянный
Битрейт : 192 Кбит/сек
Каналы : 2 канала
Частота : 48,0 КГц
Метод сжатия : С потерями
Размер потока : 38,6 Мбайт (9%)
Выравнивание : Разделение по промежуткам
Продолжительность промежутка : 40 мс. (1,00 видеокадр)
Время предзагрузки промежутка : 500 мс.
Библиотека кодирования : LAME3.97
Формат : AVI
Формат/Информация : Audio Video Interleave
Размер файла : 349 Мбайт
Продолжительность : 28 м.
Общий поток : 1742 Кбит/сек
Программа кодирования : Nandub v1.0rc2
Библиотека кодирования : Nandub build 1852/release
Видео
Идентификатор : 0
Формат : MPEG-4 Visual
Профиль формата : Advanced [email protected]
Параметр BVOP формата : 2
Параметр QPel формата : Нет
Параметр GMC формата : Без точки перехода
Параметр матрицы формата : Default (MPEG)
Режим смешивания : Сжатый битовый поток
Идентификатор кодека : XVID
Идентификатор кодека/Подсказка : XviD
Продолжительность : 28 м.
Битрейт : 1601 Кбит/сек
Ширина : 576 пикселей
Высота : 432 пикселя
Соотношение сторон : 4:3
Частота кадров : 25,000 кадров/сек
Цветовое пространство : YUV
Субдискретизация насыщенности : 4:2:0
Битовая глубина : 8 бит
Тип развёртки : Прогрессивная
Метод сжатия : С потерями
Бит/(Пиксели*Кадры) : 0.257
Размер потока : 321 Мбайт (92%)
Библиотека кодирования : XviD 1.1.2 (UTC 2006-11-01)
Аудио
Идентификатор : 1
Формат : MPEG Audio
Версия формата : Version 1
Профиль формата : Layer 3
Режим : Joint stereo
Расширение режима : MS Stereo
Идентификатор кодека : 55
Идентификатор кодека/Подсказка : MP3
Продолжительность : 28 м.
Продолжительность оригинала : 28 м.
Вид битрейта : Постоянный
Битрейт : 128 Кбит/сек
Каналы : 2 канала
Частота : 48,0 КГц
Метод сжатия : С потерями
Задержка видео : 672 мс.
Размер потока : 25,7 Мбайт (7%)
Выравнивание : Разделение по промежуткам
Продолжительность промежутка : 24 мс. (0,60 видеокадр)
Время предзагрузки промежутка : 1440 мс.
Библиотека кодирования : LAME3.96
Настройки программы : -m j -V 4 -q 3 -lowpass 17.5 -b 128
Download / Скачать

Хотите скачать бесплатно? Зарегистрируйтесь на сайте (ссылка на регистрацию). Pirat.ca - самый быстрый торрент трекер в рунете!

Как скачивать  ·   Что такое торрент  ·   Рейтинг и ограничения

Пост 23-Май-2016 12:39 (спустя 2 часа 9 минут)

Топик был перенесен из форума Зарубежные сериалы (Трюм) в форум Зарубежные сериалы
Андря
 
Показать сообщения:    
Ответить на тему

Текущее время: Сегодня 12:11

Часовой пояс: GMT + 4



Вы не можете начинать темы
Вы не можете отвечать на сообщения
Вы не можете редактировать свои сообщения
Вы не можете удалять свои сообщения
Вы не можете голосовать в опросах
Вы не можете прикреплять файлы к сообщениям
Вы не можете скачивать файлы

▼ Вниз