ML
     
  Уважаемый Гость!
Вы можете поддержать проект и зарегистрироваться у наших партнеров - онлайн-стратегия MyLands. При регистрации в игре Вы получите код, который сможете активировать после регистрации на pirat.ca и получить 1000 дублонов.

Ваш код:
0ea1bf889af42fca5f67d0a391efb3400850ad7c
 
     

Проповедник / Пастырь / Preacher / Сезон: 1 / Серии: 10 из 10 (Эван Голдберг / Evan Goldberg, ...) [2016 г., фэнтези, драма, детектив, приключения, WEB-DLRip] MVO (LostFilm) [Финал сезона]

Ответить на тему
 
Автор
Сообщение

Пост 27-Май-2016 18:18

[Q] 

kugesan

-Проповедник / Пастырь / Preacher
***
-- Производство: США
Жанр: фэнтези, драма, детектив, приключения, ...
Год выпуска: 2016 г.-Мировая премьера: 22 мая 2016-Озвучка: Студия
Перевод: Многоголосый закадровый, профессиональный-Режиссер: Эван Голдберг / Evan Goldberg, Сет Роген / Seth Rogen, Майкл Словис / Michael Slovis, ...-В ролях: Доминик Купер (Джесси Кастер), Рут Негга (Тюльпан), Джозеф Гилган (Кэссиди), У. Эрл Браун (Хьюго Рут), Люси Гриффитс (Эмили), Йен Коллетти (Жопорожец), Дерек Уилсон (Донни Шенк) ...-Описание:
Джесси Кастер — проповедник, который, следуя данному отцу обещанию, вернулся в родной Энвиль, штат Техас, дабы наставлять местное население на путь истинный. Но грешников здесь оказалось столько, что Джесси настиг кризис веры, доведший его до рукоприкладства. Неизвестно, чем бы закончилось такое отпущение грехов, если бы в пастыря однажды не вселилась неведомая сущность. Теперь у главного героя есть необычные способности и новая миссия — найти Бога, вероломно покинувшего небеса. Но искать Господа в одиночку сложно и не особо интересно, поэтому себе в компаньоны Кастер берет бывшую подругу (и единственную настоящую любовь) Тюльпан и ирландского вампира-выпивоху Кэссиди. Тюльпан всегда получает, что ей нужно, даже если ради этого приходится обманывать, грабить или убивать, а Кэссиди в силу своего характера готов в любой момент пуститься во все тяжкие ради острых ощущений и веселого времяпрепровождения. В общем, компания для поисков Бога подобралась самая подходящая. Впереди у этой троицы — километры дорог и неожиданные встречи с самыми колоритными обитателями нашего и потустороннего миров. Каждая из них таит в себе нешуточную угрозу. Джесси и его друзьям предстоит помериться силами не только с разными бессмертными сущностями и падшими ангелами, но и с секретными организациями, и что ждет пастыря в конце пути, известно только тому, кого он ищет...-Сезон: 1
Серии: 10 из 10 серий
Продолжительность: ~ 01:00:00 мин серия-Качество видео: WEB-DLRip
Контейнер: AVI
Видео кодек: XviD
Аудио кодек: MP3
Видео: MPEG-4 Visual at 1455 Кбит/сек: 720 x 400 (1.800) at 23.976 fps: 0.21 Бит/Пиксели
Аудио Rus: MPEG Audio at 128 Кбит/сек: 2 канала, 48,0 КГц |LostFilm|
Аудио Eng: MPEG Audio at 128 Кбит/сек: 2 канала, 48,0 КГц |Original|
Cубтитры: отсутствуют
- -
  • Пилот (Pilot)
  • Узри (See)
  • Возможности (The Possibilities)
  • Паучья банка (Monster Swamp)
  • Юг снова встанет с колен (South Will Rise Again)
  • Закатный (Sundowner)
  • Исчез (He Gone)
  • Эль Валеро (El Valero)
  • Допой свою песню (Finish the Song)
  • Звонок и ответ (Call and Response)
-
Общее
Полное имя : E:\_Сериалы\_Сериалы\Проповедник\Preacher (Season 01) LostFilm\Preacher.[S01E01].XviD.LostFilm.[qqss44].avi
Формат : AVI
Формат/Информация : Audio Video Interleave
Размер файла : 799 Мбайт
Продолжительность : 1 ч. 4 м.
Общий поток : 1725 Кбит/сек
Программа кодирования : VirtualDubMod 1.5.10.3 | www.virtualdub-fr.org || (build 2550/release)
Библиотека кодирования : VirtualDubMod build 2550/release
Видео
Идентификатор : 0
Формат : MPEG-4 Visual
Профиль формата : Advanced [email protected]
Параметр BVOP формата : 2
Параметр QPel формата : Нет
Параметр GMC формата : Без точки перехода
Параметр матрицы формата : Default (MPEG)
Идентификатор кодека : XVID
Идентификатор кодека/Подсказка : XviD
Продолжительность : 1 ч. 4 м.
Битрейт : 1455 Кбит/сек
Ширина : 720 пикселей
Высота : 400 пикселей
Соотношение сторон : 16:9
Частота кадров : 23,976 (23976/1000) кадра/сек
Цветовое пространство : YUV
Субдискретизация насыщенности : 4:2:0
Битовая глубина : 8 бит
Тип развёртки : Прогрессивная
Метод сжатия : С потерями
Бит/(Пиксели*Кадры) : 0.211
Размер потока : 674 Мбайт (84%)
Библиотека кодирования : XviD 73
Аудио #1
Идентификатор : 1
Формат : MPEG Audio
Версия формата : Version 1
Профиль формата : Layer 3
Режим : Joint stereo
Расширение режима : MS Stereo
Идентификатор кодека : 55
Идентификатор кодека/Подсказка : MP3
Продолжительность : 1 ч. 4 м.
Вид битрейта : Постоянный
Битрейт : 128 Кбит/сек
Каналы : 2 канала
Частота : 48,0 КГц
Метод сжатия : С потерями
Размер потока : 59,3 Мбайт (7%)
Выравнивание : Соединение по промежуткам
Продолжительность промежутка : 42 мс. (1,00 видеокадр)
Время предзагрузки промежутка : 504 мс.
Аудио #2
Идентификатор : 2
Формат : MPEG Audio
Версия формата : Version 1
Профиль формата : Layer 3
Режим : Joint stereo
Расширение режима : MS Stereo
Идентификатор кодека : 55
Идентификатор кодека/Подсказка : MP3
Продолжительность : 1 ч. 4 м.
Вид битрейта : Постоянный
Битрейт : 128 Кбит/сек
Каналы : 2 канала
Частота : 48,0 КГц
Метод сжатия : С потерями
Размер потока : 59,3 Мбайт (7%)
Выравнивание : Соединение по промежуткам
Продолжительность промежутка : 42 мс. (1,00 видеокадр)
Время предзагрузки промежутка : 504 мс.
-
-Скриншоты:
-
-
Раздача ведётся путём добавления новых серий; при каждом добавлении создаётся новый торрент.
Чтобы начать докачку новой серии, пользователям необходимо сделать следующее:
1. остановить скачивание,
2. удалить старый торрент у себя из клиента (старые серии удалять не надо),
3. скачать новый торрент и запустить его у себя в клиенте вместо старого, при этом указать клиенту путь в старую папку, куда и должно происходить скачивание новых серий.
Ваш клиент при этом должен произвести хеширование (проверку) старой папки (если не производит сам - помогите ему сделать это), и будет докачивать только те серии которых у вас ещё нет. Старые серии при этом не удаляются, а продолжают раздаваться!
Eсли вы уже удалили старые серии, то предотвратить повторную закачку старых серий можно, отжав галочку в соответствующих местах при запуске нового торрента. По возможности, желательно не удалять старые серии как можно дольше, чтобы релизёр не столько продолжал раздавать старые серии, а смог сконцентрироваться на новых.
Совет для тех, кто не хочет ждать перехеширования:
Создайте ещё одну папку рядом с папкой сериала (рядом, а не в ней!!!). Каждую новую серию после удачной загрузки копируйте в новую папку так чтобы ваша основная папка всегда была пуста. Когда ваш новый торрент предложит вам закачать все файлы, выберете только последнюю. Для сидирования же укажите адрес новой папки.
Как закачать отдельный файл из торрента или докачать ранее пропущенные файлы торрента!
-
1. Открыть торрент
2. Снять галки с тех файлов торрента, которые мы не хотим закачивать. Оставляем только на нужных нам файлах (файле).
3. Нажать О.К.
В клиенте utorrent
Инструкция
1) Открыть торрент

2) Снять галки с тех файлов торрента, которые мы не хотим закачивать:
* либо вручную, снимая с каждого файла галку( скрин №1)
* либо, нажав кнопку "Снять метки (Select None)", сняв сразу со всех файлов(скрин №2)
№1

№2

Оставляем только на нужных нам файлах (файле).

3)Нажать О.К
-Добавлена десятая, заключительная, серия первого сезона-Приятного просмотра!!!-
Download / Скачать

Хотите скачать бесплатно? Зарегистрируйтесь на сайте (ссылка на регистрацию). Pirat.ca - самый быстрый торрент трекер в рунете!

Как скачивать  ·   Что такое торрент  ·   Рейтинг и ограничения



Последний раз редактировалось: kugesan (2016-08-04 01:27), всего редактировалось 17 раз(а)

civic_85

Корсар

Пост 27-Май-2016 21:37 (спустя 3 часа)

[Q] 

Спасибо посмотрим !!

_________________
[Профиль]  [ЛС] 

preacher82

Морской Волк

Пост 28-Май-2016 07:59 (спустя 10 часов)

[Q] 

ЭТО РЕАЛЬНО ПО КОМИКСАМ 80х-90х годов?
[Профиль]  [ЛС] 

NIKROLUNGER

Флибустьер

60

Пост 28-Май-2016 16:46 (спустя 8 часов)

[Q] 

Начало интересное cm
[Профиль]  [ЛС] 

Vampirella

Штурман

Пост 16-Июл-2016 10:22 (спустя 1 месяц 18 дней)

[Q] 

Шикарный сериал)))
[Профиль]  [ЛС] 

dr1agon

Лоцман

Пост 26-Июл-2016 00:28 (спустя 9 дней)

[Q] 

А где восьмая серия?
[Профиль]  [ЛС] 

KoNiaL_KCC

Гроза морей

Пост 01-Авг-2016 14:01 (спустя 6 дней)

[Q] 

спасибо, жду последнюю серию, в целом посмотреть стоит Раздающему респект!
[Профиль]  [ЛС] 
Показать сообщения:    
Ответить на тему

Текущее время: Сегодня 00:32

Часовой пояс: GMT + 4



Вы не можете начинать темы
Вы не можете отвечать на сообщения
Вы не можете редактировать свои сообщения
Вы не можете удалять свои сообщения
Вы не можете голосовать в опросах
Вы не можете прикреплять файлы к сообщениям
Вы не можете скачивать файлы

▼ Вниз