ML
     
  Уважаемый Гость!
Вы можете поддержать проект и зарегистрироваться у наших партнеров - онлайн-стратегия MyLands. При регистрации в игре Вы получите код, который сможете активировать после регистрации на pirat.ca и получить 1000 дублонов.

Ваш код:
fcd618d94adc1456bccbde5047c9cd0930e4ae4d
 
     

Проповедник / Пастырь / Preacher / Сезон: 1 / Серии: 10 из 10 (Эван Голдберг / Evan Goldberg, ...) [2016 г., фэнтези, драма, детектив, приключения, WEB-DLRip] MVO (AlexFilm) + Original (Eng) [Финал сезона]

Ответить на тему
 
Автор
Сообщение

Пост 29-Май-2016 00:11

[Q] 

kugesan

-Проповедник / Пастырь / Preacher
***
-- Производство: США
Жанр: фэнтези, драма, детектив, приключения, ...
Год выпуска: 2016 г.-Мировая премьера: 22 мая 2016-Озвучка: Студия
Перевод: Многоголосый закадровый, профессиональный
Оригинальный аудиопоток: английский-Автор перевода: Константин Кривоногов
Роли озвучивали: Наталья Ланц, Таисия Тришина, Михаил Суслов, Владимир Курдов, Константин Погодаев, Рустам Шайхиев
Монтаж и сведение звука: Михаил Шорыгин
Постер: Андрей Шапал-Режиссер: Эван Голдберг / Evan Goldberg, Сет Роген / Seth Rogen, Майкл Словис / Michael Slovis, ...-В ролях: Доминик Купер (Джесси Кастер), Рут Негга (Тюльпан), Джозеф Гилган (Кэссиди), У. Эрл Браун (Хьюго Рут), Люси Гриффитс (Эмили), Йен Коллетти (Жопорожец), Дерек Уилсон (Донни Шенк) ...-Описание:
Священник Джесси Кастер по воле случая стал носителем внутри своего естества странного существа по имени Генезис. Это дитя совокупления ангела и демона представляет собой одновременно чистый идеал и квинтэссенцию света, но также сгусток абсолютного зла. Генезис — единственное существо во Вселенной, которое может встать вровень с Богом, если того пожелает, а его носитель автоматически становится самым могущественным существом в материальном мире. И это проповедник Кастер.-Сезон: 1
Серии: 10 из 10 серий
Продолжительность: ~ 01:00:00 мин серия-Качество видео: WEB-DLRip
Контейнер: AVI
Видео кодек: XviD
Аудио кодек: MP3
Видео: MPEG-4 Visual at 1403 Кбит/сек: 720 x 400 (1.800) at 23.976 fps: 0.20 Бит/Пиксели
Аудио Rus: MPEG Audio at 128 Кбит/сек: 2 канала, 48,0 КГц |AlexFilm|
Аудио Eng: MPEG Audio at 128 Кбит/сек: 2 канала, 48,0 КГц|Original|
Cубтитры: отсутствуют
- -
  • Пилот (Pilot)
  • Узрите (See)
  • Возможности (The Possibilities)
  • Болото тварей (Monster Swamp)
  • Юг снова встанет с колен (South Will Rise Again)
  • Закатный (Sundowner)
  • Исчез (He Gone)
  • Эль Валеро (El Valero)
  • Допой свою песню (Finish the Song)
-
Общее
Полное имя : E:\_Сериалы\_Сериалы\Проповедник\Preacher - Season 1 (AlexFilm) WEB-DLRip\Preacher.s01e01.WEB-DLRip.Rus.Eng.AlexFilm.avi
Формат : AVI
Формат/Информация : Audio Video Interleave
Размер файла : 781 Мбайт
Продолжительность : 1 ч. 5 м.
Общий поток : 1673 Кбит/сек
Название фильма : Preacher 1x01 @ AlexFilm
Программа кодирования : VirtualDubMod 1.5.10.2 (build 2540/release)
Библиотека кодирования : VirtualDubMod build 2540/release
Видео
Идентификатор : 0
Формат : MPEG-4 Visual
Профиль формата : Advanced [email protected]
Параметр BVOP формата : Нет
Параметр QPel формата : Нет
Параметр GMC формата : Без точки перехода
Параметр матрицы формата : Default (H.263)
Идентификатор кодека : XVID
Идентификатор кодека/Подсказка : XviD
Продолжительность : 1 ч. 5 м.
Битрейт : 1403 Кбит/сек
Ширина : 720 пикселей
Высота : 400 пикселей
Соотношение сторон : 16:9
Частота кадров : 23,976 (23976/1000) кадра/сек
Цветовое пространство : YUV
Субдискретизация насыщенности : 4:2:0
Битовая глубина : 8 бит
Тип развёртки : Прогрессивная
Метод сжатия : С потерями
Бит/(Пиксели*Кадры) : 0.203
Размер потока : 655 Мбайт (84%)
Библиотека кодирования : XviD 73
Аудио #1
Идентификатор : 1
Формат : MPEG Audio
Версия формата : Version 1
Профиль формата : Layer 3
Режим : Joint stereo
Расширение режима : MS Stereo
Идентификатор кодека : 55
Идентификатор кодека/Подсказка : MP3
Продолжительность : 1 ч. 5 м.
Вид битрейта : Постоянный
Битрейт : 128 Кбит/сек
Каналы : 2 канала
Частота : 48,0 КГц
Метод сжатия : С потерями
Размер потока : 59,7 Мбайт (8%)
Выравнивание : Соединение по промежуткам
Продолжительность промежутка : 42 мс. (1,00 видеокадр)
Время предзагрузки промежутка : 504 мс.
Заголовок : Russian (AlexFilm)
Библиотека кодирования : LAME3.99r
Настройки программы : -m j -V 4 -q 3 -lowpass 18 -b 128
Аудио #2
Идентификатор : 2
Формат : MPEG Audio
Версия формата : Version 1
Профиль формата : Layer 3
Режим : Joint stereo
Расширение режима : MS Stereo
Идентификатор кодека : 55
Идентификатор кодека/Подсказка : MP3
Продолжительность : 1 ч. 5 м.
Вид битрейта : Постоянный
Битрейт : 128 Кбит/сек
Каналы : 2 канала
Частота : 48,0 КГц
Метод сжатия : С потерями
Размер потока : 59,7 Мбайт (8%)
Выравнивание : Соединение по промежуткам
Продолжительность промежутка : 42 мс. (1,00 видеокадр)
Время предзагрузки промежутка : 504 мс.
Заголовок : English
Библиотека кодирования : LAME3.90.3
-
-Скриншоты:
-
-
Раздача ведётся путём добавления новых серий; при каждом добавлении создаётся новый торрент.
Чтобы начать докачку новой серии, пользователям необходимо сделать следующее:
1. остановить скачивание,
2. удалить старый торрент у себя из клиента (старые серии удалять не надо),
3. скачать новый торрент и запустить его у себя в клиенте вместо старого, при этом указать клиенту путь в старую папку, куда и должно происходить скачивание новых серий.
Ваш клиент при этом должен произвести хеширование (проверку) старой папки (если не производит сам - помогите ему сделать это), и будет докачивать только те серии которых у вас ещё нет. Старые серии при этом не удаляются, а продолжают раздаваться!
Eсли вы уже удалили старые серии, то предотвратить повторную закачку старых серий можно, отжав галочку в соответствующих местах при запуске нового торрента. По возможности, желательно не удалять старые серии как можно дольше, чтобы релизёр не столько продолжал раздавать старые серии, а смог сконцентрироваться на новых.
Совет для тех, кто не хочет ждать перехеширования:
Создайте ещё одну папку рядом с папкой сериала (рядом, а не в ней!!!). Каждую новую серию после удачной загрузки копируйте в новую папку так чтобы ваша основная папка всегда была пуста. Когда ваш новый торрент предложит вам закачать все файлы, выберете только последнюю. Для сидирования же укажите адрес новой папки.
Как закачать отдельный файл из торрента или докачать ранее пропущенные файлы торрента!
-
1. Открыть торрент
2. Снять галки с тех файлов торрента, которые мы не хотим закачивать. Оставляем только на нужных нам файлах (файле).
3. Нажать О.К.
В клиенте utorrent
Инструкция
1) Открыть торрент

2) Снять галки с тех файлов торрента, которые мы не хотим закачивать:
* либо вручную, снимая с каждого файла галку( скрин №1)
* либо, нажав кнопку "Снять метки (Select None)", сняв сразу со всех файлов(скрин №2)
№1

№2

Оставляем только на нужных нам файлах (файле).

3)Нажать О.К
-Добавлена десятая, заключительная, серия первого сезона-Приятного просмотра!!!-
Download / Скачать

Хотите скачать бесплатно? Зарегистрируйтесь на сайте (ссылка на регистрацию). Pirat.ca - самый быстрый торрент трекер в рунете!

Как скачивать  ·   Что такое торрент  ·   Рейтинг и ограничения



Последний раз редактировалось: kugesan (2016-08-03 15:46), всего редактировалось 2 раз(а)

pdb08

Легенда

Пост 20-Июл-2016 00:18 (спустя 1 месяц 22 дня)

[Q] 

Благодарю! Спасибо!!!

_________________
[Профиль]  [ЛС] 
Показать сообщения:    
Ответить на тему

Текущее время: Сегодня 12:49

Часовой пояс: GMT + 4



Вы не можете начинать темы
Вы не можете отвечать на сообщения
Вы не можете редактировать свои сообщения
Вы не можете удалять свои сообщения
Вы не можете голосовать в опросах
Вы не можете прикреплять файлы к сообщениям
Вы не можете скачивать файлы

▼ Вниз