ML
     
  Уважаемый Гость!
Вы можете поддержать проект и зарегистрироваться у наших партнеров - онлайн-стратегия MyLands. При регистрации в игре Вы получите код, который сможете активировать после регистрации на pirat.ca и получить 1000 дублонов.

Ваш код:
0af2e2107bc9b5dd5ac2c09f9fc25e1a77c43887
 
     

Уэйуорд Пайнс / Wayward Pines / Сезон: 2 / Серии: 10 из 10 (Джефф Т. Томас / Jeff T. Thomas, ...) [2016 г., фантастика, триллер, драма, детектив, ..., WEB-DLRip] MVO (AlexFilm) + Original (Eng) [Финал сезона]

Ответить на тему
 
Автор
Сообщение

Пост 29-Май-2016 23:19

[Q] 

kugesan

-Уэйуорд Пайнс | Wayward Pines
***
-- Производство: США
Жанр: фантастика, триллер, драма, детектив, ...
Год выпуска: 2016 г.-Премьера (мир): 14 мая 2015, ...
Премьера (РФ): 14 мая 2015-Озвучка: Студия
Перевод: Многоголосый закадровый, профессиональный
Оригинальный аудиопоток: английский-Автор перевода: Константин Кривоногов
Роли озвучивали: Татьяна Манетина, Михаил Суслов, Владимир Курдов, Рустам Шайхиев, Михаил Алексеев
Монтаж и сведение звука: Михаил Суслов
Постер: Андрей Шапал-Режиссер: Джефф Т. Томас / Jeff T. Thomas, Зал Батманглидж / Zal Batmanglij, Тим Хантер / Tim Hunter, ...-В ролях: Мэтт Диллон (Итан Берк), Мелисса Лео (сестра Пэм), Терренс Ховард (шериф Арнольд Поуп), Джульетт Льюис (Беверли), Карла Гуджино (Кейт Хьюсон), Рид Даймонд (Гарольд Бэлинджер), Тим Гриффин (Адам Хасслер), Шаннин Соссамон (Тереза Берк), Чарли Тахэн (Бен Берк), Тоби Джонс (доктор Дженкинс).
-
Описание:
Федеральный агент Итан Берк (Мэтт Диллон), один из лучших сотрудников в своем подразделении, получает задание найти двух пропавших без вести коллег. Он отправляется в тихий, ничем не примечательный городок Уэйуорд Пайнс, но, так и не успев приступить к расследованию, попадает в аварию и приходит в себя уже в больнице. Итан просит у медсестры телефон, чтобы связаться с начальством и семьей, однако персонал госпиталя, кажется, вовсе не собирается идти навстречу пациенту. Не спешит помочь и местный шериф. Чем больше людей встречает главный герой на своем пути, тем отчетливей понимает, что в Уэйуорд Пайнс творится что-то неладное. Впрочем, жители города выглядят счастливыми и довольными, и лишь барменша Беверли (Джульетт Льюис) подтверждает подозрения Берка. Она пишет ему записки с подсказками, намекая на то, что и сама не прочь убраться из этого гиблого места. Именно по наводке Беверли Итан находит одного из своих коллег. Правда, мертвым и со следами пыток...-Сезон: 2
Серии: 10 из 10 серий
Продолжительность: ~ 00:43:00 мин серия-Качество видео: WEB-DLRip
Контейнер: AVI
Видео кодек: XviD
Аудио кодек: MP3
Видео: MPEG-4 Visual at 1403 Кбит/сек: 720 x 400 (1.800) at 23.976 fps: 0.20 Бит/Пиксели
Аудио Rus: MPEG Audio at 128 Кбит/сек: 2 канала, 48,0 КГц |AlexFilm|
Аудио Eng: MPEG Audio at 128 Кбит/сек: 2 канала, 48,0 КГц |Original|
Cубтитры: отсутствуют
- -
  • В тылу врага (Enemy Lines)
  • Кровавая жатва (Blood Harvest)
  • Однажды в Уэйуорд Пайнс (Once Upon a Time in Wayward Pines)
  • Стратегия отступления (Exit Strategy)
  • Бей тревогу (Sound the Alarm)
  • Город на холме (City Upon a Hill)
  • Время покажет (Time Will Tell)
  • Осуждение (Pass Judgment)
  • Академия Уолкотт (Walcott Prep)
  • Сказка перед сном (Bedtime Story)
-
Общее
Полное имя : E:\_Сериалы\_Сериалы\Уэйуорд Пайнс\Wayward Pines - Season 2 (AlexFilm) WEB-DLRip\Wayward.Pines.s02e01.WEB-DLRip.Rus.Eng.AlexFilm.avi
Формат : AVI
Формат/Информация : Audio Video Interleave
Размер файла : 528 Мбайт
Продолжительность : 44 м.
Общий поток : 1673 Кбит/сек
Название фильма : Wayward Pines 2x01 @ AlexFilm
Программа кодирования : VirtualDubMod 1.5.10.2 (build 2540/release)
Библиотека кодирования : VirtualDubMod build 2540/release
Видео
Идентификатор : 0
Формат : MPEG-4 Visual
Профиль формата : Advanced [email protected]
Параметр BVOP формата : Нет
Параметр QPel формата : Нет
Параметр GMC формата : Без точки перехода
Параметр матрицы формата : Default (H.263)
Идентификатор кодека : XVID
Идентификатор кодека/Подсказка : XviD
Продолжительность : 44 м.
Битрейт : 1403 Кбит/сек
Ширина : 720 пикселей
Высота : 400 пикселей
Соотношение сторон : 16:9
Частота кадров : 23,976 (23976/1000) кадра/сек
Цветовое пространство : YUV
Субдискретизация насыщенности : 4:2:0
Битовая глубина : 8 бит
Тип развёртки : Прогрессивная
Метод сжатия : С потерями
Бит/(Пиксели*Кадры) : 0.203
Размер потока : 443 Мбайт (84%)
Библиотека кодирования : XviD 73
Аудио #1
Идентификатор : 1
Формат : MPEG Audio
Версия формата : Version 1
Профиль формата : Layer 3
Идентификатор кодека : 55
Идентификатор кодека/Подсказка : MP3
Продолжительность : 44 м.
Вид битрейта : Постоянный
Битрейт : 128 Кбит/сек
Каналы : 1 канал
Частота : 48,0 КГц
Метод сжатия : С потерями
Размер потока : 40,4 Мбайт (8%)
Выравнивание : Соединение по промежуткам
Продолжительность промежутка : 42 мс. (1,00 видеокадр)
Время предзагрузки промежутка : 504 мс.
Заголовок : Russian (AlexFilm)
Библиотека кодирования : LAME3.99r
Настройки программы : -m m -V 4 -q 3 -lowpass 18 -b 128
Аудио #2
Идентификатор : 2
Формат : MPEG Audio
Версия формата : Version 1
Профиль формата : Layer 3
Режим : Joint stereo
Расширение режима : MS Stereo
Идентификатор кодека : 55
Идентификатор кодека/Подсказка : MP3
Продолжительность : 44 м.
Вид битрейта : Постоянный
Битрейт : 128 Кбит/сек
Каналы : 2 канала
Частота : 48,0 КГц
Метод сжатия : С потерями
Размер потока : 40,4 Мбайт (8%)
Выравнивание : Соединение по промежуткам
Продолжительность промежутка : 42 мс. (1,00 видеокадр)
Время предзагрузки промежутка : 504 мс.
Заголовок : English
Библиотека кодирования : LAME3.90.3
-
-Скриншоты:
-
-
Раздача ведётся путём добавления новых серий; при каждом добавлении создаётся новый торрент.
Чтобы начать докачку новой серии, пользователям необходимо сделать следующее:
1. остановить скачивание,
2. удалить старый торрент у себя из клиента (старые серии удалять не надо),
3. скачать новый торрент и запустить его у себя в клиенте вместо старого, при этом указать клиенту путь в старую папку, куда и должно происходить скачивание новых серий.
Ваш клиент при этом должен произвести хеширование (проверку) старой папки (если не производит сам - помогите ему сделать это), и будет докачивать только те серии которых у вас ещё нет. Старые серии при этом не удаляются, а продолжают раздаваться!
Eсли вы уже удалили старые серии, то предотвратить повторную закачку старых серий можно, отжав галочку в соответствующих местах при запуске нового торрента. По возможности, желательно не удалять старые серии как можно дольше, чтобы релизёр не столько продолжал раздавать старые серии, а смог сконцентрироваться на новых.
Совет для тех, кто не хочет ждать перехеширования:
Создайте ещё одну папку рядом с папкой сериала (рядом, а не в ней!!!). Каждую новую серию после удачной загрузки копируйте в новую папку так чтобы ваша основная папка всегда была пуста. Когда ваш новый торрент предложит вам закачать все файлы, выберете только последнюю. Для сидирования же укажите адрес новой папки.
Как закачать отдельный файл из торрента или докачать ранее пропущенные файлы торрента!
-
1. Открыть торрент
2. Снять галки с тех файлов торрента, которые мы не хотим закачивать. Оставляем только на нужных нам файлах (файле).
3. Нажать О.К.
В клиенте utorrent
Инструкция
1) Открыть торрент

2) Снять галки с тех файлов торрента, которые мы не хотим закачивать:
* либо вручную, снимая с каждого файла галку( скрин №1)
* либо, нажав кнопку "Снять метки (Select None)", сняв сразу со всех файлов(скрин №2)
№1

№2

Оставляем только на нужных нам файлах (файле).

3)Нажать О.К
-Добавлена десятая, заключительная, серия второго сезона-Приятного просмотра!!!-
Download / Скачать

Хотите скачать бесплатно? Зарегистрируйтесь на сайте (ссылка на регистрацию). Pirat.ca - самый быстрый торрент трекер в рунете!

Как скачивать  ·   Что такое торрент  ·   Рейтинг и ограничения



Последний раз редактировалось: kugesan (2016-06-11 12:22), всего редактировалось 2 раз(а)
Показать сообщения:    
Ответить на тему

Текущее время: Сегодня 00:07

Часовой пояс: GMT + 4



Вы не можете начинать темы
Вы не можете отвечать на сообщения
Вы не можете редактировать свои сообщения
Вы не можете удалять свои сообщения
Вы не можете голосовать в опросах
Вы не можете прикреплять файлы к сообщениям
Вы не можете скачивать файлы

▼ Вниз