ML
     
  Уважаемый Гость!
Вы можете поддержать проект и зарегистрироваться у наших партнеров - онлайн-стратегия MyLands. При регистрации в игре Вы получите код, который сможете активировать после регистрации на pirat.ca и получить 1000 дублонов.

Ваш код:
0ea1bf889af42fca5f67d0a391efb3400850ad7c
 
     

Накорми зверя / Feed the Beast / Сезон 1 / Серии: 10 из 10 (Дэниэл Эттиэс / Daniel Attias, ...) [2016г., драма, криминал, ... WEB-DLRip] MVO (BaibaKo) + Original (Eng) [Финал сезона]

Ответить на тему
 
Автор
Сообщение

Пост 09-Июн-2016 00:36

[Q] 

kugesan

Накорми зверя / Feed the Beast «A new breed of terrorist»- Страна: США
Год выпуска: 2016
Жанр: драма, криминал, ...-Озвучка: Студия
Перевод: Многоголосый закадровый, профессиональный
Оригинальный аудиопоток: английский-Перевод: Фиона Кудреватых, Мария Назарко и Анна Макаренко
Озвучка: Лира Грим, Олекса Мельник, Виталий Ткаченко и Алексей Татарча
Монтаж: Павел Дежин
Обложка: Антон Максимов-Премьера (мир): 5 июня 2016-Режиссер: Дэниэл Эттиэс / Daniel Attias, Стив Шилл / Steve Shill, Джон С. Бейрд / Jon S. Baird, ...
В главных ролях: Джим Стёрджесс, Дэвид Швиммер, Майкл Глэдис, Лоренца Иззо, Кристин Адамс, Джон Доумен, Вики Уэйрхайм, Дэвид Патрик Келли, Муса Крэйиш, Джеффри Кантор, ...-Описание фильма:
Двое лучших друзей Томми (Дэвид Швиммер) и Дион (Джим Стерджесс) предпринимают отчаянную попытку исполнить давнюю мечту — открыть высококлассный ресторан в родном Бронксе. Томми — вдовец, в одиночку воспитывающий сына-подростка, — надеется таким образом обеспечить своему ребенку безбедную и счастливую жизнь. Дион же втайне рассчитывает на то, что доход от ресторана позволит ему, наконец, погасить долг перед мафией.
Сериал «Накорми зверя» производства AMC является американской адаптацией датского проекта Bankerot.-Сезон: 1
Серии: 10 из 10 серий
Продолжительность: ~ 00:45:00 мин серия-Качество видео: WEB-DLRip
Формат: AVI
Видеокодек: XviD
Аудио кодек: AC-3
Видео: MPEG-4 Visual at 1490 Кбит/сек: 720 x 400 (1.800) at 23.976 fps: 0.21 Бит/Пиксели
Аудио Rus: AC-3 at 384 Кбит/сек: 6 каналов, 48,0 КГц |BaibaKo|
Аудио Eng: AC-3 at 384 Кбит/сек: 6 каналов, 48,0 КГц |Original|
- -
Общее
Полное имя : E:\_Сериалы\_Сериалы\Накорми зверя\Feed.the.Beast.s01.WEB-DLRip.Rus.Eng.BaibaKo\Feed.the.Beast.s01e01.WEB-DLRip.Rus.Eng.BaibaKo.tv.avi
Формат : AVI
Формат/Информация : Audio Video Interleave
Размер файла : 697 Мбайт
Продолжительность : 45 м.
Общий поток : 2141 Кбит/сек
Программа кодирования : VirtualDubMod 1.5.10.3 | www.virtualdub-fr.org || (build 2550/release)
Библиотека кодирования : VirtualDubMod build 2550/release
Видео
Идентификатор : 0
Формат : MPEG-4 Visual
Профиль формата : Advanced [email protected]
Параметр BVOP формата : 2
Параметр QPel формата : Нет
Параметр GMC формата : Без точки перехода
Параметр матрицы формата : Default (MPEG)
Идентификатор кодека : XVID
Идентификатор кодека/Подсказка : XviD
Продолжительность : 45 м.
Битрейт : 1490 Кбит/сек
Ширина : 720 пикселей
Высота : 400 пикселей
Соотношение сторон : 16:9
Частота кадров : 23,976 (23976/1000) кадра/сек
Цветовое пространство : YUV
Субдискретизация насыщенности : 4:2:0
Битовая глубина : 8 бит
Тип развёртки : Прогрессивная
Метод сжатия : С потерями
Бит/(Пиксели*Кадры) : 0.216
Размер потока : 485 Мбайт (70%)
Библиотека кодирования : XviD 73
Аудио #1
Идентификатор : 1
Формат : AC-3
Формат/Информация : Audio Coding 3
Расширение режима : CM (complete main)
Параметр Endianness формата : Big
Идентификатор кодека : 2000
Продолжительность : 45 м.
Вид битрейта : Постоянный
Битрейт : 384 Кбит/сек
Каналы : 6 каналов
Расположение каналов : Front: L C R, Side: L R, LFE
Частота : 48,0 КГц
Частота кадров : 31,250 кадров/сек (1536 spf)
Метод сжатия : С потерями
Задержка видео : 2 мс.
Размер потока : 125 Мбайт (18%)
Выравнивание : Разделение по промежуткам
Продолжительность промежутка : 42 мс. (1,00 видеокадр)
Время предзагрузки промежутка : 500 мс.
Аудио #2
Идентификатор : 2
Формат : AC-3
Формат/Информация : Audio Coding 3
Расширение режима : CM (complete main)
Параметр Endianness формата : Big
Идентификатор кодека : 2000
Продолжительность : 45 м.
Вид битрейта : Постоянный
Битрейт : 384 Кбит/сек
Каналы : 6 каналов
Расположение каналов : Front: L C R, Side: L R, LFE
Частота : 48,0 КГц
Частота кадров : 31,250 кадров/сек (1536 spf)
Метод сжатия : С потерями
Задержка видео : 3 мс.
Размер потока : 82,5 Мбайт (12%)
Выравнивание : Разделение по промежуткам
Продолжительность промежутка : 42 мс. (1,00 видеокадр)
Время предзагрузки промежутка : 500 мс.
-
-Скриншоты:
-
-
Раздача ведётся путём добавления новых серий; при каждом добавлении создаётся новый торрент.
Чтобы начать докачку новой серии, пользователям необходимо сделать следующее:
1. остановить скачивание,
2. удалить старый торрент у себя из клиента (старые серии удалять не надо),
3. скачать новый торрент и запустить его у себя в клиенте вместо старого, при этом указать клиенту путь в старую папку, куда и должно происходить скачивание новых серий.
Ваш клиент при этом должен произвести хеширование (проверку) старой папки (если не производит сам - помогите ему сделать это), и будет докачивать только те серии которых у вас ещё нет. Старые серии при этом не удаляются, а продолжают раздаваться!
Eсли вы уже удалили старые серии, то предотвратить повторную закачку старых серий можно, отжав галочку в соответствующих местах при запуске нового торрента. По возможности, желательно не удалять старые серии как можно дольше, чтобы релизёр не столько продолжал раздавать старые серии, а смог сконцентрироваться на новых.
Совет для тех, кто не хочет ждать перехеширования:
Создайте ещё одну папку рядом с папкой сериала (рядом, а не в ней!!!). Каждую новую серию после удачной загрузки копируйте в новую папку так чтобы ваша основная папка всегда была пуста. Когда ваш новый торрент предложит вам закачать все файлы, выберете только последнюю. Для сидирования же укажите адрес новой папки.
Как закачать отдельный файл из торрента или докачать ранее пропущенные файлы торрента!
-
1. Открыть торрент
2. Снять галки с тех файлов торрента, которые мы не хотим закачивать. Оставляем только на нужных нам файлах (файле).
3. Нажать О.К.
В клиенте utorrent
Инструкция
1) Открыть торрент

2) Снять галки с тех файлов торрента, которые мы не хотим закачивать:
* либо вручную, снимая с каждого файла галку( скрин №1)
* либо, нажав кнопку "Снять метки (Select None)", сняв сразу со всех файлов(скрин №2)
№1

№2

Оставляем только на нужных нам файлах (файле).

3)Нажать О.К
-Добавлена десятая, заключительная, серия первого сезона-Приятного просмотра!!!-
Download / Скачать

Хотите скачать бесплатно? Зарегистрируйтесь на сайте (ссылка на регистрацию). Pirat.ca - самый быстрый торрент трекер в рунете!

Как скачивать  ·   Что такое торрент  ·   Рейтинг и ограничения

Показать сообщения:    
Ответить на тему

Текущее время: Сегодня 00:35

Часовой пояс: GMT + 4



Вы не можете начинать темы
Вы не можете отвечать на сообщения
Вы не можете редактировать свои сообщения
Вы не можете удалять свои сообщения
Вы не можете голосовать в опросах
Вы не можете прикреплять файлы к сообщениям
Вы не можете скачивать файлы

▼ Вниз