ML
     
  Уважаемый Гость!
Вы можете поддержать проект и зарегистрироваться у наших партнеров - онлайн-стратегия MyLands. При регистрации в игре Вы получите код, который сможете активировать после регистрации на pirat.ca и получить 1000 дублонов.

Ваш код:
f612af22ea70acf5cbe90707ac5a076d215f8f7f
 
     

Последний корабль / The Last Ship / Сезон: 3 / Серии: 13 из 13 (Джек Бендер / Jack Bender) [2016 г., фантастика, боевик, триллер, драма, ..., HDTVRip] MVO (LostFilm) + Original (Eng) [Финал сезона]

Ответить на тему
 
Автор
Сообщение

Пост 16-Июн-2016 14:02

[Q] 

kugesan

-Последний корабль / The Last Ship«No cure. No country. No surrender»- Производство: США
Жанр: фантастика, боевик, триллер, драма, ...
Год выпуска: 2016 г.-Мировая премьера: 22 июня 2014, ...-Озвучка: Студия
Перевод: Многоголосый закадровый, профессиональный
Оригинальный аудиопоток: английский-Режиссер: Джек Бендер / Jack Bender, Серджо Мимика-Геззан / Sergio Mimica-Gezzan, Пол Холахан / Paul Holahan, ...-В ролях: Рона Митра (доктор Рэйчел Скотт), Эрик Дэйн (капитан Том Чандлер), Адам Болдуин (офицер Майк Слэттери), Микаэла МакМанус (лейтенант Джеки Макина), Трэвис Ван Винкл (лейтенант Дэнни Грин), Сэм Спруэлл (доктор Куинси Тофет).-Описание:
«Последний корабль» — постапокалиптический экшен-триллер в лучших традициях телеканала TNT, рассказывающий о том, как команда военного эсминца пытается найти лекарство от смертельного вируса, угрожающего уничтожить все человечество. Продюсером сериала выступил заслуженный голливудский кинематографист Майкл Бэй, проекты которого отличаются исключительной зрелищностью и эпичностью. Одноименный роман Уильяма Бринкли, положенный в основу сюжета, был восторженно принят критиками и поклонниками историй о мужестве военно-морского командования в экстренных ситуациях.-Сезон: 3
Серии: 13 из 13 серий
Продолжительность: ~ 00:41:00 мин серия-
Качество видео: HDTVRip
Контейнер: AVI
Видео кодек: XviD
Аудио кодек: MP3
Видео: MPEG-4 Visual at 1581 Кбит/сек: 720 x 400 (1.800) at 23.976 fps: 0.23 Бит/Пиксели
Аудио Rus: MPEG Audio at 128 Кбит/сек: 2 канала, 48,0 КГц |LostFilm|
Аудио Eng: MPEG Audio at 128 Кбит/сек: 2 канала, 48,0 КГц |Original|
Cубтитры: отсутствуют
- -
  • Эффект Скотт (The Scott Effect)
  • Восходящее солнце (Rising Sun)
  • Шанзай (Shanzhai)
  • И у дьявола есть сострадание (Devil May Care)
  • Минное поле (Minefield)
  • Пекло (Dog Day)
  • В темноте (In the Dark)
  • Перемены (Sea Change)
  • Рай (Paradise)
  • Бегство (Scuttle)
  • Наследие (Legacy)
  • Сопротивление (Resistance)
  • Не оглядывайся (Don't Look Back)
-
Общее
Полное имя : E:\_Сериалы\_Сериалы\Последний корабль\The Last Ship (Season 03) LostFilm\The.Last.Ship.[S03E01].XviD.LostFilm.[qqss44].avi
Формат : AVI
Формат/Информация : Audio Video Interleave
Размер файла : 555 Мбайт
Продолжительность : 41 м.
Общий поток : 1851 Кбит/сек
Программа кодирования : VirtualDubMod 1.5.10.3 | www.virtualdub-fr.org || (build 2550/release)
Библиотека кодирования : VirtualDubMod build 2550/release
Видео
Идентификатор : 0
Формат : MPEG-4 Visual
Профиль формата : Advanced [email protected]
Параметр BVOP формата : 2
Параметр QPel формата : Нет
Параметр GMC формата : Без точки перехода
Параметр матрицы формата : Default (MPEG)
Идентификатор кодека : XVID
Идентификатор кодека/Подсказка : XviD
Продолжительность : 41 м.
Битрейт : 1581 Кбит/сек
Ширина : 720 пикселей
Высота : 400 пикселей
Соотношение сторон : 16:9
Частота кадров : 23,976 (23976/1000) кадра/сек
Цветовое пространство : YUV
Субдискретизация насыщенности : 4:2:0
Битовая глубина : 8 бит
Тип развёртки : Прогрессивная
Метод сжатия : С потерями
Бит/(Пиксели*Кадры) : 0.229
Размер потока : 474 Мбайт (85%)
Библиотека кодирования : XviD 73
Аудио #1
Идентификатор : 1
Формат : MPEG Audio
Версия формата : Version 1
Профиль формата : Layer 3
Режим : Joint stereo
Расширение режима : MS Stereo
Идентификатор кодека : 55
Идентификатор кодека/Подсказка : MP3
Продолжительность : 41 м.
Вид битрейта : Постоянный
Битрейт : 128 Кбит/сек
Каналы : 2 канала
Частота : 48,0 КГц
Метод сжатия : С потерями
Размер потока : 38,4 Мбайт (7%)
Выравнивание : Соединение по промежуткам
Продолжительность промежутка : 42 мс. (1,00 видеокадр)
Время предзагрузки промежутка : 504 мс.
Аудио #2
Идентификатор : 2
Формат : MPEG Audio
Версия формата : Version 1
Профиль формата : Layer 3
Режим : Joint stereo
Расширение режима : MS Stereo
Идентификатор кодека : 55
Идентификатор кодека/Подсказка : MP3
Продолжительность : 41 м.
Вид битрейта : Постоянный
Битрейт : 128 Кбит/сек
Каналы : 2 канала
Частота : 48,0 КГц
Метод сжатия : С потерями
Размер потока : 38,4 Мбайт (7%)
Выравнивание : Соединение по промежуткам
Продолжительность промежутка : 42 мс. (1,00 видеокадр)
Время предзагрузки промежутка : 504 мс.
-
-Скриншоты:
-
-
Раздача ведётся путём добавления новых серий; при каждом добавлении создаётся новый торрент.
Чтобы начать докачку новой серии, пользователям необходимо сделать следующее:
1. остановить скачивание,
2. удалить старый торрент у себя из клиента (старые серии удалять не надо),
3. скачать новый торрент и запустить его у себя в клиенте вместо старого, при этом указать клиенту путь в старую папку, куда и должно происходить скачивание новых серий.
Ваш клиент при этом должен произвести хеширование (проверку) старой папки (если не производит сам - помогите ему сделать это), и будет докачивать только те серии которых у вас ещё нет. Старые серии при этом не удаляются, а продолжают раздаваться!
Eсли вы уже удалили старые серии, то предотвратить повторную закачку старых серий можно, отжав галочку в соответствующих местах при запуске нового торрента. По возможности, желательно не удалять старые серии как можно дольше, чтобы релизёр не столько продолжал раздавать старые серии, а смог сконцентрироваться на новых.
Совет для тех, кто не хочет ждать перехеширования:
Создайте ещё одну папку рядом с папкой сериала (рядом, а не в ней!!!). Каждую новую серию после удачной загрузки копируйте в новую папку так чтобы ваша основная папка всегда была пуста. Когда ваш новый торрент предложит вам закачать все файлы, выберете только последнюю. Для сидирования же укажите адрес новой папки.
Как закачать отдельный файл из торрента или докачать ранее пропущенные файлы торрента!
-
1. Открыть торрент
2. Снять галки с тех файлов торрента, которые мы не хотим закачивать. Оставляем только на нужных нам файлах (файле).
3. Нажать О.К.
В клиенте utorrent
Инструкция
1) Открыть торрент

2) Снять галки с тех файлов торрента, которые мы не хотим закачивать:
* либо вручную, снимая с каждого файла галку( скрин №1)
* либо, нажав кнопку "Снять метки (Select None)", сняв сразу со всех файлов(скрин №2)
№1

№2

Оставляем только на нужных нам файлах (файле).

3)Нажать О.К
Добавлена тринадцатая, заключительная, серия третьего сезона-Приятного просмотра!!!-
Download / Скачать

Хотите скачать бесплатно? Зарегистрируйтесь на сайте (ссылка на регистрацию). Pirat.ca - самый быстрый торрент трекер в рунете!

Как скачивать  ·   Что такое торрент  ·   Рейтинг и ограничения



Последний раз редактировалось: kugesan (2016-09-15 13:07), всего редактировалось 12 раз(а)

ss80

Флибустьер

36

Пост 30-Июн-2016 22:04 (спустя 14 дней)

[Q] 

Спасибо!!!
[Профиль]  [ЛС] 

pdb08

Легенда

Пост 20-Июл-2016 00:21 (спустя 19 дней)

[Q] 

Пиратка рулез!!! .

_________________
[Профиль]  [ЛС] 

DDoS55

Флибустьер

2253

Пост 15-Сен-2016 19:45 (спустя 1 месяц 26 дней)

[Q] 

Спасибо!!!

_________________
включайте в торрент клиенте: DHT, обмен пирами, шифрование, ip-фильтр
[Профиль]  [ЛС] 
Показать сообщения:    
Ответить на тему

Текущее время: Сегодня 00:27

Часовой пояс: GMT + 4



Вы не можете начинать темы
Вы не можете отвечать на сообщения
Вы не можете редактировать свои сообщения
Вы не можете удалять свои сообщения
Вы не можете голосовать в опросах
Вы не можете прикреплять файлы к сообщениям
Вы не можете скачивать файлы

▼ Вниз