ML
     
  Уважаемый Гость!
Вы можете поддержать проект и зарегистрироваться у наших партнеров - онлайн-стратегия MyLands. При регистрации в игре Вы получите код, который сможете активировать после регистрации на pirat.ca и получить 1000 дублонов.

Ваш код:
0af2e2107bc9b5dd5ac2c09f9fc25e1a77c43887
 
     

По волчьим законам / Animal Kingdom / Сезон 1 / Серии: 10 из 10 (Кристофер Чулак / Christopher Chulack, ...) [2016г., драма, криминал, ... WEB-DLRip] MVO (NewStudio) + Original (Eng) [финал сезона]

Ответить на тему
 
Автор
Сообщение

Пост 18-Июн-2016 20:05

[Q] 

kugesan

По волчьим законам / Animal Kingdom ***- Страна: США
Год выпуска: 2016
Жанр: драма, криминал, ...-Озвучка: Студия
Перевод: Многоголосый закадровый, профессиональный
Оригинальный аудиопоток: английский-Перевод: Алексей Матвеев
Постер: Vortex-Премьера (мир): 14 июня 2016, ...-Режиссер: Кристофер Чулак / Christopher Chulack, Реджина Кинг / Regina King, Джон Уэллс / John Wells, ...
В главных ролях: Эллен Баркин (Смурф), Скотт Спидман (Барри «Баз» Блэквел), Шон Хэтоси (Эндрю «Поуп» Коуди), Бен Робсон (Крейг Коуди), Джейк Вири (Даррен Коуди), Финн Коул (Джошуа «Джей» Коуди), Даниэлла Алонсо (Катрин), Молли Гордон (Никки) ...-Описание фильма:
На создание сериала создателей вдохновил одноимённый австралийский фильм Дэвида Мишо 2010 года. Это история о том, как 17-летний Джошуа Коди после смерти матери переезжает к своей родне в пляжный городок в Южной Калифорнии. Глава семьи Джанин Коди руководит семейным делом. Главный её помощник — старший из братьев Коди по имени Поуп. Остальные сыновья тоже помогают матери по мере сил. Вскоре Джошуа понимает, что фамильный бизнес связан с криминалом и что теперь он волей-неволей сделался частью этого нового для него смертельно опасного мира.-Сезон: 1
Серии: 10 из 10 серий
Продолжительность: ~ 00:55:00 мин серия-Качество видео: WEB-DLRip
Контейнер: AVI
Видео кодек: XviD
Аудио кодек: Mp3
Видео: MPEG-4 Visual at 1494 Кбит/сек: 720 x 400 (1.800) at 23.976 fps: 0.22 Бит/Пиксели
Аудио Rus: MPEG Audio at 128 Кбит/сек: 2 канала, 48,0 КГц |NewStudio|
Аудио Eng: MPEG Audio at 128 Кбит/сек: 2 канала, 48,0 КГц |Original|
Cубтитры: отсутствуют
- -
Общее
Полное имя : E:\_Сериалы\_Сериалы\По волчьим законам\Animal.Kingdom.s01.WEBDLRip.NewStudio.TV\Animal.Kingdom.s01e01.WEBDLRip.NewStudio.TV.avi
Формат : AVI
Формат/Информация : Audio Video Interleave
Размер файла : 700 Мбайт
Продолжительность : 55 м.
Общий поток : 1764 Кбит/сек
Программа кодирования : VirtualDubMod 1.5.10.2 (build 2540/release)
Библиотека кодирования : VirtualDubMod build 2540/release
Видео
Идентификатор : 0
Формат : MPEG-4 Visual
Профиль формата : Advanced [email protected]
Параметр BVOP формата : 2
Параметр QPel формата : Нет
Параметр GMC формата : Без точки перехода
Параметр матрицы формата : Default (MPEG)
Идентификатор кодека : XVID
Идентификатор кодека/Подсказка : XviD
Продолжительность : 55 м.
Битрейт : 1494 Кбит/сек
Ширина : 720 пикселей
Высота : 400 пикселей
Соотношение сторон : 16:9
Частота кадров : 23,976 (23976/1000) кадра/сек
Цветовое пространство : YUV
Субдискретизация насыщенности : 4:2:0
Битовая глубина : 8 бит
Тип развёртки : Прогрессивная
Метод сжатия : С потерями
Бит/(Пиксели*Кадры) : 0.216
Размер потока : 593 Мбайт (85%)
Библиотека кодирования : XviD 73
Аудио #1
Идентификатор : 1
Формат : MPEG Audio
Версия формата : Version 1
Профиль формата : Layer 3
Режим : Joint stereo
Расширение режима : MS Stereo
Идентификатор кодека : 55
Идентификатор кодека/Подсказка : MP3
Продолжительность : 55 м.
Вид битрейта : Постоянный
Битрейт : 128 Кбит/сек
Каналы : 2 канала
Частота : 48,0 КГц
Метод сжатия : С потерями
Размер потока : 50,8 Мбайт (7%)
Выравнивание : Соединение по промежуткам
Продолжительность промежутка : 42 мс. (1,00 видеокадр)
Время предзагрузки промежутка : 504 мс.
Аудио #2
Идентификатор : 2
Формат : MPEG Audio
Версия формата : Version 1
Профиль формата : Layer 3
Режим : Joint stereo
Идентификатор кодека : 55
Идентификатор кодека/Подсказка : MP3
Продолжительность : 55 м.
Вид битрейта : Постоянный
Битрейт : 128 Кбит/сек
Каналы : 2 канала
Частота : 48,0 КГц
Метод сжатия : С потерями
Размер потока : 50,8 Мбайт (7%)
Выравнивание : Соединение по промежуткам
Продолжительность промежутка : 42 мс. (1,00 видеокадр)
Время предзагрузки промежутка : 504 мс.
Библиотека кодирования : LAME3.99r
Настройки программы : -m j -V 4 -q 2 -lowpass 17 -b 128
-
-Скриншоты:
-
-
Раздача ведётся путём добавления новых серий; при каждом добавлении создаётся новый торрент.
Чтобы начать докачку новой серии, пользователям необходимо сделать следующее:
1. остановить скачивание,
2. удалить старый торрент у себя из клиента (старые серии удалять не надо),
3. скачать новый торрент и запустить его у себя в клиенте вместо старого, при этом указать клиенту путь в старую папку, куда и должно происходить скачивание новых серий.
Ваш клиент при этом должен произвести хеширование (проверку) старой папки (если не производит сам - помогите ему сделать это), и будет докачивать только те серии которых у вас ещё нет. Старые серии при этом не удаляются, а продолжают раздаваться!
Eсли вы уже удалили старые серии, то предотвратить повторную закачку старых серий можно, отжав галочку в соответствующих местах при запуске нового торрента. По возможности, желательно не удалять старые серии как можно дольше, чтобы релизёр не столько продолжал раздавать старые серии, а смог сконцентрироваться на новых.
Совет для тех, кто не хочет ждать перехеширования:
Создайте ещё одну папку рядом с папкой сериала (рядом, а не в ней!!!). Каждую новую серию после удачной загрузки копируйте в новую папку так чтобы ваша основная папка всегда была пуста. Когда ваш новый торрент предложит вам закачать все файлы, выберете только последнюю. Для сидирования же укажите адрес новой папки.
Как закачать отдельный файл из торрента или докачать ранее пропущенные файлы торрента!
-
1. Открыть торрент
2. Снять галки с тех файлов торрента, которые мы не хотим закачивать. Оставляем только на нужных нам файлах (файле).
3. Нажать О.К.
В клиенте utorrent
Инструкция
1) Открыть торрент

2) Снять галки с тех файлов торрента, которые мы не хотим закачивать:
* либо вручную, снимая с каждого файла галку( скрин №1)
* либо, нажав кнопку "Снять метки (Select None)", сняв сразу со всех файлов(скрин №2)
№1

№2

Оставляем только на нужных нам файлах (файле).

3)Нажать О.К
-Добавлена десятая, заключительная, серия первого сезона-Приятного просмотра!!!-
Download / Скачать

Хотите скачать бесплатно? Зарегистрируйтесь на сайте (ссылка на регистрацию). Pirat.ca - самый быстрый торрент трекер в рунете!

Как скачивать  ·   Что такое торрент  ·   Рейтинг и ограничения

zmaksimz

Корсар

Пост 12-Авг-2016 20:04 (спустя 1 месяц 23 дня)

[Q] 

Понравился сериальчик. Интересно, будет ли продолжение
[Профиль]  [ЛС] 
Показать сообщения:    
Ответить на тему

Текущее время: Сегодня 00:03

Часовой пояс: GMT + 4



Вы не можете начинать темы
Вы не можете отвечать на сообщения
Вы не можете редактировать свои сообщения
Вы не можете удалять свои сообщения
Вы не можете голосовать в опросах
Вы не можете прикреплять файлы к сообщениям
Вы не можете скачивать файлы

▼ Вниз