ML
     
  Уважаемый Гость!
Вы можете поддержать проект и зарегистрироваться у наших партнеров - онлайн-стратегия MyLands. При регистрации в игре Вы получите код, который сможете активировать после регистрации на pirat.ca и получить 1000 дублонов.

Ваш код:
db0e0ad91548759ffeb9bb88bed405e1a4b3c165
 
     

Восстание варваров / Barbarians Rising / Сезон 1 / Серии: 4 из 4 (Саймон Джордж / Simon George, ...) [2016г., драма, история, ... WEB-DLRip] MVO (BaibaKo) + Original (Eng) [Финал сезона]

Ответить на тему
 
Автор
Сообщение

Пост 19-Июн-2016 13:18

[Q] 

kugesan

Восстание варваров / Barbarians Rising ***- Страна: США
Год выпуска: 2016
Жанр: драма, история, ...-Озвучка: Студия
Перевод: Многоголосый закадровый, профессиональный
Оригинальный аудиопоток: английский-Перевод: Никита Коваль, Фиона Кудреватых и Татьяна Михеева
Озвучка: Юля Малахова, Алексей Татарча, Андрей Павловский и Александр Фурман
Монтаж: Виталий Ткаченко
Обложка: Антон Максимов-Премьера (мир): 16 января 2015, ...-Режиссер: Саймон Джордж / Simon George, ...
В главных ролях: Николас Пиннок, Бэн Батт, Кристи Митчелл, Том Хоппер, Эмиль Хостин, Стивен Ваддингтон, Ричард Брэйк, Джефферсон Холл ...-Описание фильма:
Все могущественные империи зарабатывали свой авторитет путём насилия и диктатуры. Римская империя не была исключением. Все знают, что на пути к могуществу римские легионы убивали миллионы мирных людей, захватывали чужие земли и сеяли хаос там, куда ступала их нога. Но даже самая могущественная империя не может существовать вечно. Однажды наступает тот момент, когда люди осознают свою истинную силу. Они понимают, что на самом деле правительство – это лишь небольшая кучка людей, спрятавшаяся в страхе за спинами армии. Он – обычный рабочий мужчина, которому надоело терпеть постоянные унижения. Он хочет свободы! Он хочет жить на своей земле, и никому за это не платить! Он – предводитель мятежников, и они идут на войну против Рима. В их руках сила, ведь за правда на их стороне, а это самое сильное оружие…-Сезон: 1
Серии: 4 из 4 серий
Продолжительность: ~ 00:43:00 мин серия-Качество видео: WEB-DLRip
Контейнер: AVI
Видео кодек: XviD
Аудио кодек: AC-3
Видео: MPEG-4 Visual at 1498 Кбит/сек: 720 x 400 (1.800) at 25.000 fps: 0.21 Бит/Пиксели
Аудио Rus: AC-3 at 384 Кбит/сек: 2 канала, 48,0 КГц |BaibaKo|
Аудио Eng: AC-3 at 384 Кбит/сек: 2 канала, 48,0 КГц |Original|
Cубтитры: отсутствуют
- -
  • Сопротивление (Resistance)
  • Бунт (Rebellion)
  • Возмездие (Revenge)
  • Руины (Ruin)
-
Общее
Полное имя : E:\_Сериалы\_Сериалы\Восстание варваров\Barbarians.Rising.s01.WEB-DLRip.Rus.Eng.BaibaKo\Barbarians.Rising.s01e01.WEB-DLRip.Rus.Eng.BaibaKo.tv.avi
Формат : AVI
Формат/Информация : Audio Video Interleave
Размер файла : 1,34 Гбайт
Продолжительность : 1 ч. 24 м.
Общий поток : 2281 Кбит/сек
Программа кодирования : VirtualDubMod 1.5.10.3 | www.virtualdub-fr.org || (build 2550/release)
Библиотека кодирования : VirtualDubMod build 2550/release
Видео
Идентификатор : 0
Формат : MPEG-4 Visual
Профиль формата : Advanced [email protected]
Параметр BVOP формата : 2
Параметр QPel формата : Нет
Параметр GMC формата : Без точки перехода
Параметр матрицы формата : Default (MPEG)
Идентификатор кодека : XVID
Идентификатор кодека/Подсказка : XviD
Продолжительность : 1 ч. 24 м.
Битрейт : 1498 Кбит/сек
Ширина : 720 пикселей
Высота : 400 пикселей
Соотношение сторон : 16:9
Частота кадров : 25,000 кадров/сек
Цветовое пространство : YUV
Субдискретизация насыщенности : 4:2:0
Битовая глубина : 8 бит
Тип развёртки : Прогрессивная
Метод сжатия : С потерями
Бит/(Пиксели*Кадры) : 0.208
Размер потока : 903 Мбайт (66%)
Библиотека кодирования : XviD 73
Аудио #1
Идентификатор : 1
Формат : AC-3
Формат/Информация : Audio Coding 3
Расширение режима : CM (complete main)
Параметр Endianness формата : Big
Идентификатор кодека : 2000
Продолжительность : 1 ч. 24 м.
Вид битрейта : Постоянный
Битрейт : 384 Кбит/сек
Каналы : 2 канала
Расположение каналов : Front: L R
Частота : 48,0 КГц
Частота кадров : 31,250 кадров/сек (1536 spf)
Метод сжатия : С потерями
Задержка видео : 8 мс.
Размер потока : 231 Мбайт (17%)
Выравнивание : Разделение по промежуткам
Продолжительность промежутка : 40 мс. (1,00 видеокадр)
Время предзагрузки промежутка : 500 мс.
Аудио #2
Идентификатор : 2
Формат : AC-3
Формат/Информация : Audio Coding 3
Расширение режима : CM (complete main)
Параметр Endianness формата : Big
Идентификатор кодека : 2000
Продолжительность : 1 ч. 24 м.
Вид битрейта : Постоянный
Битрейт : 384 Кбит/сек
Каналы : 2 канала
Расположение каналов : Front: L R
Частота : 48,0 КГц
Частота кадров : 31,250 кадров/сек (1536 spf)
Метод сжатия : С потерями
Задержка видео : 8 мс.
Размер потока : 231 Мбайт (17%)
Выравнивание : Разделение по промежуткам
Продолжительность промежутка : 40 мс. (1,00 видеокадр)
Время предзагрузки промежутка : 500 мс.
-
-Скриншоты:
-
-
Раздача ведётся путём добавления новых серий; при каждом добавлении создаётся новый торрент.
Чтобы начать докачку новой серии, пользователям необходимо сделать следующее:
1. остановить скачивание,
2. удалить старый торрент у себя из клиента (старые серии удалять не надо),
3. скачать новый торрент и запустить его у себя в клиенте вместо старого, при этом указать клиенту путь в старую папку, куда и должно происходить скачивание новых серий.
Ваш клиент при этом должен произвести хеширование (проверку) старой папки (если не производит сам - помогите ему сделать это), и будет докачивать только те серии которых у вас ещё нет. Старые серии при этом не удаляются, а продолжают раздаваться!
Eсли вы уже удалили старые серии, то предотвратить повторную закачку старых серий можно, отжав галочку в соответствующих местах при запуске нового торрента. По возможности, желательно не удалять старые серии как можно дольше, чтобы релизёр не столько продолжал раздавать старые серии, а смог сконцентрироваться на новых.
Совет для тех, кто не хочет ждать перехеширования:
Создайте ещё одну папку рядом с папкой сериала (рядом, а не в ней!!!). Каждую новую серию после удачной загрузки копируйте в новую папку так чтобы ваша основная папка всегда была пуста. Когда ваш новый торрент предложит вам закачать все файлы, выберете только последнюю. Для сидирования же укажите адрес новой папки.
Как закачать отдельный файл из торрента или докачать ранее пропущенные файлы торрента!
-
1. Открыть торрент
2. Снять галки с тех файлов торрента, которые мы не хотим закачивать. Оставляем только на нужных нам файлах (файле).
3. Нажать О.К.
В клиенте utorrent
Инструкция
1) Открыть торрент

2) Снять галки с тех файлов торрента, которые мы не хотим закачивать:
* либо вручную, снимая с каждого файла галку( скрин №1)
* либо, нажав кнопку "Снять метки (Select None)", сняв сразу со всех файлов(скрин №2)
№1

№2

Оставляем только на нужных нам файлах (файле).

3)Нажать О.К
-Добавлена четвертая, заключительная, серия первого сезона-Приятного просмотра!!!-
Download / Скачать

Хотите скачать бесплатно? Зарегистрируйтесь на сайте (ссылка на регистрацию). Pirat.ca - самый быстрый торрент трекер в рунете!

Как скачивать  ·   Что такое торрент  ·   Рейтинг и ограничения



Последний раз редактировалось: kugesan (2016-07-12 19:32), всего редактировалось 2 раз(а)

jofrei53

Корсар

Пост 19-Июн-2016 19:31 (спустя 6 часов)

[Q] 

Спасибо! Заинтересовало... Люблю исторические фильмы. Спасибо!!! Автору респект!!!
[Профиль]  [ЛС] 

kugesan ®

56719

Пост 19-Июн-2016 19:47 (спустя 16 минут)

[Q] 

Приятного просмотра!!!

_________________

В мире две бесконечности: вселенная и человеческая глупость - Альберт Эйнштен
«Можно вытащить человека из грязи, но нельзя вытащить грязь из человека»!
[Профиль]  [ЛС] 

Maksai

Лоцман

Пост 21-Июн-2016 03:06 (спустя 1 день 7 часов)

[Q] 

Чего там исторического я как увидел что предводитель галлов негр желание смотреть сразу пропало!
[Профиль]  [ЛС] 

ss80

Флибустьер

36

Пост 30-Июн-2016 22:01 (спустя 9 дней)

[Q] 

Спасибо!!! Автору респект!!!
[Профиль]  [ЛС] 

MAXYAK

Корсар

196

Пост 01-Июл-2016 20:08 (спустя 22 часа)

[Q] 

756127Чего там исторического я как увидел что предводитель галлов негр желание смотреть сразу пропало!
серьезно? ai

_________________
[Профиль]  [ЛС] 
Показать сообщения:    
Ответить на тему

Текущее время: Сегодня 08:09

Часовой пояс: GMT + 4



Вы не можете начинать темы
Вы не можете отвечать на сообщения
Вы не можете редактировать свои сообщения
Вы не можете удалять свои сообщения
Вы не можете голосовать в опросах
Вы не можете прикреплять файлы к сообщениям
Вы не можете скачивать файлы

▼ Вниз