ML
     
  Уважаемый Гость!
Вы можете поддержать проект и зарегистрироваться у наших партнеров - онлайн-стратегия MyLands. При регистрации в игре Вы получите код, который сможете активировать после регистрации на pirat.ca и получить 1000 дублонов.

Ваш код:
8b752b428cf60a012c159dcae592cd1392170115
 
     

Оранжевый - хит сезона / Orange Is the New Black / Сезон: 4 / Серии: 13 из 13 (Эндрю МакКарти / Andrew McCarthy, ...) [2016 г., драма, комедия, криминал, ..., WEBRip] MVO (NewStudio) + Original (Eng) [Финал сезона]

Ответить на тему
 
Автор
Сообщение

Пост 21-Июн-2016 17:58

[Q] 

kugesan

-Оранжевый - хит сезона
Оранжевый - новый чёрный / Orange Is the New Black

«Every sentence is a story»
-- Производство: США
Жанр: драма, комедия, криминал, ...
Год выпуска: 2016 г.-Мировая премьера: 11 июля 2013, ...-Озвучка: Студия
Перевод: Многоголосый закадровый, профессиональный
Оригинальный аудиопоток: английский-Перевод: Александра Цернант, Юлия Мейер, Булат Карабасов
Постер: Vortex-Режиссер: Эндрю МакКарти / Andrew McCarthy, Майкл Трим / Michael Trim, Фил Абрахам / Phil Abraham, ...-В ролях: Тейлор Шиллинг, Майкл Харни, Кейт Малгрю, Эбигейл Сэвадж, Даниэль Брукс, Джессика Пиментел, Узо Адуба, Даша Поланко, Самира Уайли, Ник Сэндоу, ...
-
Описание:
Пайпер Чепмен — обычная жительница Коннектикута. Она любит свою благополучную жизнь и все её приятные мелочи. Душ по утрам, красивый завтрак, занятия любовью. Но случается так, что благодаря своему мимолетному увлечению крупным наркоторговцем, Пайпер оказывается заключенной в тюрьму на долгие пятнадцать месяцев. Отныне ей необходимо не только привыкнуть к новому окружению, но и просто — выжить.-Сезон: 4
Серии: 13 из 13 серий
Продолжительность: ~ 00:51:00 мин серия-
Качество видео: WEBRip
Контейнер: AVI
Видео кодек: XviD
Аудио кодек: MP3
Видео: MPEG-4 Visual at 1538 Кбит/сек: 720 x 400 (1.800) at 23.976 fps: 0.22 Бит/Пиксели
Аудио Rus: MPEG Audio at 128 Кбит/сек, 2 канала, 48,0 КГц |NewStudio|
Аудио Eng: MPEG Audio at 128 Кбит/сек, 2 канала, 48,0 КГц |Original|
Cубтитры: отсутствуют
- -
  • Делай тело (Work That Body for Me)
  • Власть (Power Suit)
  • (Ничего) не говори ((Don't) Say Anything)
  • Доктор Психо (Doctor Psycho)
  • Балтимор всегда с нами (We'll Always Have Baltimore)
  • Кусок дерьма (Piece of Sh*t)
  • В голове прозвучало лучше (It Sounded Nicer in My Head)
  • Друзья в паршивых местах (Friends in Low Places)
  • Поворотный момент (Turn Table Turn)
  • Зайчик, Череп, Зайчик, Череп (Bunny, Skull, Bunny, Skull)
  • Доброжелательные люди (People Persons)
  • Звери (The Animals)
  • Тост не сможет снова стать хлебом (Toast Can't Never Be Bread)
-
Общее
Полное имя : E:\_Сериалы\_Сериалы\Оранжевый - хит сезона\Orange.Is.the.New.Black.s04.WEBRip.NewStudio.TV\Orange.Is.the.New.Black.s04e01.WEBRip.NewStudio.TV.avi
Формат : AVI
Формат/Информация : Audio Video Interleave
Размер файла : 700 Мбайт
Продолжительность : 54 м.
Общий поток : 1808 Кбит/сек
Программа кодирования : VirtualDubMod 1.5.10.2 (build 2540/release)
Библиотека кодирования : VirtualDubMod build 2540/release
Видео
Идентификатор : 0
Формат : MPEG-4 Visual
Профиль формата : Advanced [email protected]
Параметр BVOP формата : 2
Параметр QPel формата : Нет
Параметр GMC формата : Без точки перехода
Параметр матрицы формата : Default (MPEG)
Идентификатор кодека : XVID
Идентификатор кодека/Подсказка : XviD
Продолжительность : 54 м.
Битрейт : 1538 Кбит/сек
Ширина : 720 пикселей
Высота : 400 пикселей
Соотношение сторон : 16:9
Частота кадров : 23,976 (23976/1000) кадра/сек
Цветовое пространство : YUV
Субдискретизация насыщенности : 4:2:0
Битовая глубина : 8 бит
Тип развёртки : Прогрессивная
Метод сжатия : С потерями
Бит/(Пиксели*Кадры) : 0.223
Размер потока : 595 Мбайт (85%)
Библиотека кодирования : XviD 73
Аудио #1
Идентификатор : 1
Формат : MPEG Audio
Версия формата : Version 1
Профиль формата : Layer 3
Режим : Joint stereo
Расширение режима : MS Stereo
Идентификатор кодека : 55
Идентификатор кодека/Подсказка : MP3
Продолжительность : 54 м.
Вид битрейта : Постоянный
Битрейт : 128 Кбит/сек
Каналы : 2 канала
Частота : 48,0 КГц
Метод сжатия : С потерями
Размер потока : 49,6 Мбайт (7%)
Выравнивание : Соединение по промежуткам
Продолжительность промежутка : 42 мс. (1,00 видеокадр)
Время предзагрузки промежутка : 504 мс.
Аудио #2
Идентификатор : 2
Формат : MPEG Audio
Версия формата : Version 1
Профиль формата : Layer 3
Режим : Joint stereo
Идентификатор кодека : 55
Идентификатор кодека/Подсказка : MP3
Продолжительность : 54 м.
Вид битрейта : Постоянный
Битрейт : 128 Кбит/сек
Каналы : 2 канала
Частота : 48,0 КГц
Метод сжатия : С потерями
Размер потока : 49,6 Мбайт (7%)
Выравнивание : Соединение по промежуткам
Продолжительность промежутка : 42 мс. (1,00 видеокадр)
Время предзагрузки промежутка : 504 мс.
Библиотека кодирования : LAME3.99r
Настройки программы : -m j -V 4 -q 2 -lowpass 17 -b 128
-
-Скриншоты:
-
-
Раздача ведётся путём добавления новых серий; при каждом добавлении создаётся новый торрент.
Чтобы начать докачку новой серии, пользователям необходимо сделать следующее:
1. остановить скачивание,
2. удалить старый торрент у себя из клиента (старые серии удалять не надо),
3. скачать новый торрент и запустить его у себя в клиенте вместо старого, при этом указать клиенту путь в старую папку, куда и должно происходить скачивание новых серий.
Ваш клиент при этом должен произвести хеширование (проверку) старой папки (если не производит сам - помогите ему сделать это), и будет докачивать только те серии которых у вас ещё нет. Старые серии при этом не удаляются, а продолжают раздаваться!
Eсли вы уже удалили старые серии, то предотвратить повторную закачку старых серий можно, отжав галочку в соответствующих местах при запуске нового торрента. По возможности, желательно не удалять старые серии как можно дольше, чтобы релизёр не столько продолжал раздавать старые серии, а смог сконцентрироваться на новых.
Совет для тех, кто не хочет ждать перехеширования:
Создайте ещё одну папку рядом с папкой сериала (рядом, а не в ней!!!). Каждую новую серию после удачной загрузки копируйте в новую папку так чтобы ваша основная папка всегда была пуста. Когда ваш новый торрент предложит вам закачать все файлы, выберете только последнюю. Для сидирования же укажите адрес новой папки.
Как закачать отдельный файл из торрента или докачать ранее пропущенные файлы торрента!
-
1. Открыть торрент
2. Снять галки с тех файлов торрента, которые мы не хотим закачивать. Оставляем только на нужных нам файлах (файле).
3. Нажать О.К.
В клиенте utorrent
Инструкция
1) Открыть торрент

2) Снять галки с тех файлов торрента, которые мы не хотим закачивать:
* либо вручную, снимая с каждого файла галку( скрин №1)
* либо, нажав кнопку "Снять метки (Select None)", сняв сразу со всех файлов(скрин №2)
№1

№2

Оставляем только на нужных нам файлах (файле).

3)Нажать О.К
-Добавлена тринадцатая, заключительная, серия четвертого сезона-Приятного просмотра!!!-
Download / Скачать

Хотите скачать бесплатно? Зарегистрируйтесь на сайте (ссылка на регистрацию). Pirat.ca - самый быстрый торрент трекер в рунете!

Как скачивать  ·   Что такое торрент  ·   Рейтинг и ограничения

Пост 17-Июл-2016 02:30 (спустя 25 дней)

Топик был перенесен из форума Сериалы в эфире в форум Зарубежные сериалы
Андря
 
Показать сообщения:    
Ответить на тему

Текущее время: Сегодня 06:23

Часовой пояс: GMT + 4



Вы не можете начинать темы
Вы не можете отвечать на сообщения
Вы не можете редактировать свои сообщения
Вы не можете удалять свои сообщения
Вы не можете голосовать в опросах
Вы не можете прикреплять файлы к сообщениям
Вы не можете скачивать файлы

▼ Вниз