ML
     
  Уважаемый Гость!
Вы можете поддержать проект и зарегистрироваться у наших партнеров - онлайн-стратегия MyLands. При регистрации в игре Вы получите код, который сможете активировать после регистрации на pirat.ca и получить 1000 дублонов.

Ваш код:
a6d1ef7ff63e237add5a4c8b21d8aa937c5e9b4b
 
     

Водолей / Aquarius / Сезон 2 / Серии: 13 из 13 (Джонас Пейт / Jonas Pate, ...) [2016 г., драма, криминал, ..., WEB-DLRip] MVO (OMSKBIRD) + Original (Eng) [Финал]

Ответить на тему
 
Автор
Сообщение

Пост 21-Июн-2016 18:37

[Q] 

kugesan

Водолей / Aquarius
«His case of the week became the case of a generation»
- Производство: США
Год выпуска: 2016
Жанр: драма, криминал, ...-Озвучка: Студия
Перевод: Многоголосый закадровый, профессиональный
Оригинальный аудиопоток: английский-ПереводТатьяна Масаковская
Роли озвучивалиПавел Ярощик, Семен Ващенко, Наталья Ланц
ЗвукорежиссерПавел Квентов
ПостерКсения Просветова
Релиз подготовилGater-Премьера (мир): 28 мая 2015
Премьера (РФ): 29 мая 2015-Режиссер: Джонас Пейт / Jonas Pate, Майкл Цинберг / Michael Zinberg, Джон Эмиел / Jon Amiel
В главных ролях: Дэвид Духовны (Sam Hodiak), Клер Холт (Charmain Tully), Эмма Дюмон (Emma Karn), Грэй Дэймон (Brian Shafe), Чэнс Келли (Detective Ed Cutler), Карл Конти (Morty), Михаэлла МакМанус (Grace Karn), Тара Барр (Katrina Cznyk), Дэвид Мюнье (Roy Kovic), Уитни Роуз Пинн (Minnie), Джейсон Ральф (Mike Vickery), Крис Шеффилд (Walt Hodiak) ...-Описание фильма:
Сюжет сериала основан на реальной истории организации «Семья» руководимой Чарльзом Мэнсоном. События фильма начинают развиваться в 1967-м году. Полицейскому Сэму поручают расследовать похищение дочери известного адвоката. Он обращается за помощью к своему коллеге, работающему под прикрытием в среде подростков-хиппи. Вместе они выходят на Чарльза Мэнсона, собравшего на своем ранчо группу «детей», среди которых он пропагандирует культуру хиппи, наркотики и групповой секс. Через два года череда зверских убийств, совершенных приспешниками Мэнсона, заставит содрогнуться от ужаса всю Америку.-Сезон: 2
Серии: 13 из 13 серий
Продолжительность: ~ 00:43:00 мин серия-Качество видео: WEB-DLRip
Формат: AVI
Видеокодек: XviD
Аудиокодек: Mp3
Видео: MPEG-4 Visual at 1960 Кбит/сек, 720 x 400 (1.800) at 23.976 fps, 0.28 Бит/Пиксели
Аудио Rus: AC-3 at 384 Кбит/сек: 6 каналов, 48,0 КГц |OMSKBIRD records|
Аудио Eng: AC-3 at 384 Кбит/сек: 6 каналов, 48,0 КГц |Original|
- -
  • Я так устал (I'm So Tired)
  • Счастье это теплый пистолет (Happiness Is a Warm Gun)
  • Почему бы нам не сделать это в дороге (Why Don't We Do It in the Road)
  • Первая Революция (Revolution 1)
  • У всех есть что-то, чтобы скрыться кроме меня и моей обезьяны (Everybody's Got Something to Hide Except Me and My Monkey)
  • Девятая Революция (Revolution 9)
  • Поросенок (Piggies)
  • Моя гитара плачет (While My Guitar Gently Weeps)
  • Сексуальная Сэйди (Sexy Sadie)
  • Черный дрозд (Blackbird)
  • Вы можете взять меня обратно? (Can You Take Me Back?)
  • Сын матери-природы (Mother Nature's Son)
  • Хорошо (I Will)
-
Общее
Полное имя : E:\_Сериалы\_Сериалы\Водолей\Aquarius S02 WEB-DLRip (OMSKBIRD)\Aquarius S02E01 WEB-DLRip (OMSKBIRD).avi
Формат : AVI
Формат/Информация : Audio Video Interleave
Размер файла : 846 Мбайт
Продолжительность : 43 м.
Общий поток : 2742 Кбит/сек
Программа кодирования : VirtualDubMod 1.5.10.3 | www.virtualdub-fr.org || (build 2550/release)
Библиотека кодирования : VirtualDubMod build 2550/release
Видео
Идентификатор : 0
Формат : MPEG-4 Visual
Профиль формата : Advanced [email protected]
Параметр BVOP формата : 1
Параметр QPel формата : Нет
Параметр GMC формата : Без точки перехода
Параметр матрицы формата : Default (MPEG)
Идентификатор кодека : XVID
Идентификатор кодека/Подсказка : XviD
Продолжительность : 43 м.
Битрейт : 1960 Кбит/сек
Ширина : 720 пикселей
Высота : 400 пикселей
Соотношение сторон : 16:9
Частота кадров : 23,976 (23976/1000) кадра/сек
Цветовое пространство : YUV
Субдискретизация насыщенности : 4:2:0
Битовая глубина : 8 бит
Тип развёртки : Прогрессивная
Метод сжатия : С потерями
Бит/(Пиксели*Кадры) : 0.284
Размер потока : 605 Мбайт (71%)
Библиотека кодирования : XviD 1.2.1 (UTC 2008-12-04)
Аудио #1
Идентификатор : 1
Формат : AC-3
Формат/Информация : Audio Coding 3
Расширение режима : CM (complete main)
Параметр Endianness формата : Big
Идентификатор кодека : 2000
Продолжительность : 43 м.
Вид битрейта : Постоянный
Битрейт : 384 Кбит/сек
Каналы : 6 каналов
Расположение каналов : Front: L C R, Side: L R, LFE
Частота : 48,0 КГц
Частота кадров : 31,250 кадров/сек (1536 spf)
Метод сжатия : С потерями
Размер потока : 118 Мбайт (14%)
Выравнивание : Разделение по промежуткам
Продолжительность промежутка : 42 мс. (1,00 видеокадр)
Время предзагрузки промежутка : 500 мс.
Аудио #2
Идентификатор : 2
Формат : AC-3
Формат/Информация : Audio Coding 3
Расширение режима : CM (complete main)
Параметр Endianness формата : Big
Идентификатор кодека : 2000
Продолжительность : 43 м.
Вид битрейта : Постоянный
Битрейт : 384 Кбит/сек
Каналы : 6 каналов
Расположение каналов : Front: L C R, Side: L R, LFE
Частота : 48,0 КГц
Частота кадров : 31,250 кадров/сек (1536 spf)
Метод сжатия : С потерями
Размер потока : 118 Мбайт (14%)
Выравнивание : Разделение по промежуткам
Продолжительность промежутка : 42 мс. (1,00 видеокадр)
Время предзагрузки промежутка : 500 мс.
-
-Скриншоты:
-
-
Раздача ведётся путём добавления новых серий; при каждом добавлении создаётся новый торрент.
Чтобы начать докачку новой серии, пользователям необходимо сделать следующее:
1. остановить скачивание,
2. удалить старый торрент у себя из клиента (старые серии удалять не надо),
3. скачать новый торрент и запустить его у себя в клиенте вместо старого, при этом указать клиенту путь в старую папку, куда и должно происходить скачивание новых серий.
Ваш клиент при этом должен произвести хеширование (проверку) старой папки (если не производит сам - помогите ему сделать это), и будет докачивать только те серии которых у вас ещё нет. Старые серии при этом не удаляются, а продолжают раздаваться!
Eсли вы уже удалили старые серии, то предотвратить повторную закачку старых серий можно, отжав галочку в соответствующих местах при запуске нового торрента. По возможности, желательно не удалять старые серии как можно дольше, чтобы релизёр не столько продолжал раздавать старые серии, а смог сконцентрироваться на новых.
Совет для тех, кто не хочет ждать перехеширования:
Создайте ещё одну папку рядом с папкой сериала (рядом, а не в ней!!!). Каждую новую серию после удачной загрузки копируйте в новую папку так чтобы ваша основная папка всегда была пуста. Когда ваш новый торрент предложит вам закачать все файлы, выберете только последнюю. Для сидирования же укажите адрес новой папки.
Как закачать отдельный файл из торрента или докачать ранее пропущенные файлы торрента!
-
1. Открыть торрент
2. Снять галки с тех файлов торрента, которые мы не хотим закачивать. Оставляем только на нужных нам файлах (файле).
3. Нажать О.К.
В клиенте utorrent
Инструкция
1) Открыть торрент

2) Снять галки с тех файлов торрента, которые мы не хотим закачивать:
* либо вручную, снимая с каждого файла галку( скрин №1)
* либо, нажав кнопку "Снять метки (Select None)", сняв сразу со всех файлов(скрин №2)
№1

№2

Оставляем только на нужных нам файлах (файле).

3)Нажать О.К
-Добавлена тринадцатая, заключительная, серия второго сезона-Приятного просмотра!!!-
Download / Скачать

Хотите скачать бесплатно? Зарегистрируйтесь на сайте (ссылка на регистрацию). Pirat.ca - самый быстрый торрент трекер в рунете!

Как скачивать  ·   Что такое торрент  ·   Рейтинг и ограничения



Последний раз редактировалось: kugesan (2016-09-14 00:02), всего редактировалось 2 раз(а)

jofrei53

Корсар

Пост 06-Сен-2016 22:20 (спустя 2 месяца 15 дней)

[Q] 

Спасибо! Первый сезон посмотрели, не плохо... Автору респект!!! Лови бочку
[Профиль]  [ЛС] 
Показать сообщения:    
Ответить на тему

Текущее время: Сегодня 13:35

Часовой пояс: GMT + 4



Вы не можете начинать темы
Вы не можете отвечать на сообщения
Вы не можете редактировать свои сообщения
Вы не можете удалять свои сообщения
Вы не можете голосовать в опросах
Вы не можете прикреплять файлы к сообщениям
Вы не можете скачивать файлы

▼ Вниз