ML
     
  Уважаемый Гость!
Вы можете поддержать проект и зарегистрироваться у наших партнеров - онлайн-стратегия MyLands. При регистрации в игре Вы получите код, который сможете активировать после регистрации на pirat.ca и получить 1000 дублонов.

Ваш код:
9cfe162481db953a6549f32179d7b3900b8b8643
 
     

Тринадцатый (сериал 2011 – 2012) / XIII: The Series (Дуан Кларк / Duane Clark, ...) [2011 г., боевик, триллер, криминал, детектив, HDRip] [1 сезон / 1-13 из 13 серии] MVO [AXN Sci-Fi Россия] + Original (Eng)

Ответить на тему
 
Автор
Сообщение

Пост 24-Июн-2016 04:02

[Q] 

somik

Легенда

-Тринадцатый (сериал 2011 – 2012) / XIII: The Series / 1 сезон / 1-13 из 13 серии-- Производство: Канада, Франция, Canal+ [fr], Europacorp Television, Jimmy, M6, XIII Series, ...
Год выпуска: 2011 г.
Жанр: боевик, триллер, криминал, детектив
Продолжительность: 00:45:00
Мировая премьера: 18 апреля 2011
Российская премьера: 16 января 2012
Перевод: Профессиональный (многоголосый, закадровый) [AXN Sci-Fi Россия]
Оригинальный аудиопоток: английский
Режиссер: Дуан Кларк / Duane Clark, ...-В ролях: Стюарт Таунсенд, Вирджиния Ледуайен, Грег Брайк, Стивен МакХэтти, Паулино Нюнс, Аиша Тайлер, Катерина Мурино-Описание: Первая в США женщина-президент убита метким снайперским выстрелом во время выступления в День ветеранов. Убийца не найден. Вскоре после этого в лесу находят таинственного парашютиста. Он ранен и не помнит абсолютно ничего из своего прошлого. На его груди загадочная татуировка — «XIII». Теперь молодому человеку предстоит понять кто он такой и попытаться раскрыть правительственный заговор…-
Качество видео: HDRip
Контейнер: AVI
Видео кодек: XviD
Аудио кодек: MP3
Видео: 624x352 (1.77:1), 25 fps, XviD build 50 ~999 kbps avg, 0.18 bit/pixel
Аудио: 48 kHz, MPEG Layer 3, 2 ch, ~128.00 kbps avg
Аудио #2: 48 kHz, MPEG Layer 3, 2 ch, ~128.00 kbps avg
Cубтитры: отсутствуют
Я был секретным агентом
Сериал «Тринадцатый» наверно один из лучших в своём жанре! Лично для меня не понятно почему такой качественный сериал остаётся в тени. Скорее всего дело в небольшом бюджете и недостаточной «раскрутке». Посмотреть его стоит обязательно. На мой взгляд у сценаристов вышло отличное продолжение к приквелу 2008г. Очень порадовало, что удалось сохранить практически весь оригинальный актёрский состав. У сериала есть всё, чтобы претендовать на высокие оценки.
1. Сериал удовлетворяет всем современным требованиям жанра: сцены рукопашного боя, перестрелки взрывы, использования всевозможных современных гаджетов и электронных примочек, путешествия по миру главного героя (действие не ограничивается городом или штатом, что придаёт масштабности).
2. К актёрской игре нет никаких претензий, все эмоции или их отсутствие смотрятся более чем правдоподобно. Взять, например, вечно холодный взгляд полковника Эймоса (Грег Брайк).
3. Развитие событий, сюжет — самые главные козыри этого сериала. Сериал интригует практически с самого начала и со временем интрига только возрастает. И, что очень важно, вас не будут мучить долгим ожиданием ответов на возникающие вопросы! Тайны будут раскрываться систематически, что ещё более будет подливать масла в огонь интриги.
4. Концовка сериала выше всяких похвал! Такого поворота сюжета ожидать было очень сложно.
Многие говорят, что «Тринадцатый» это клон Борна, если это даже и так отчасти, то ничего зазорного в нет в том, чтобы использовать идею о потере памяти бывшего агента спецслужб и о его попытках собрать и сложить детали пазла воедино. На мой взгляд сценаристы усовершенствовали эту идею, повторюсь, тем, что дают конкретные ответы на конкретные вопросы, никакой недосказанности.
Смотря этот сериал, понимаешь, что все мы живём под колпаком. Спецслужбы из под земли достанут любого, увидят в камеру пока просто идёшь по улице или вообще со спутника идентифицируют, если захотят. Просто бросает в ужас от всех государственных выкрутасов, что в своей стране, что в чужой с целью наживы.
Ведь в любой сказке только доля сказки. Очень жаль, что сериал «Тринадцатый» не имеет должной популярности. Надеюсь со временем он станет более известным. Жду с нетерпением второго сезона!
P.S. не забудьте сперва посмотреть приквел!
10 из 10
Общее
Полное имя : F:\ПОСЛЕДНИЕ ЗАГРУЗКИ\XIII\Trinadtsatiy.XIII.S01.HDRip.AXN Sci-Fi Россия.[pirat.ca]\XIII.s01e01.rus.eng.avi
Формат : AVI
Формат/Информация : Audio Video Interleave
Размер файла : 396 Мбайт
Продолжительность : 43 м.
Общий поток : 1271 Кбит/сек
Название фильма : XIII.s01e01.rus.eng
Программа кодирования : VirtualDubMod 1.5.10.2 (build 2540/release)
Видео
Идентификатор : 0
Формат : MPEG-4 Visual
Профиль формата : Advanced [email protected]
Параметр BVOP формата : 1
Параметр QPel формата : Нет
Параметр GMC формата : Без точки перехода
Параметр матрицы формата : Default (H.263)
Идентификатор кодека : XVID
Идентификатор кодека/Подсказка : XviD
Продолжительность : 43 м.
Битрейт : 1000 Кбит/сек
Ширина : 624 пикселя
Высота : 352 пикселя
Соотношение сторон : 16:9
Частота кадров : 25,000 кадров/сек
Цветовое пространство : YUV
Субдискретизация насыщенности : 4:2:0
Битовая глубина : 8 бит
Тип развёртки : Прогрессивная
Метод сжатия : С потерями
Бит/(Пиксели*Кадры) : 0.182
Размер потока : 312 Мбайт (79%)
Библиотека кодирования : XviD 1.2.1 (UTC 2008-12-04)
Аудио #1
Идентификатор : 1
Формат : MPEG Audio
Версия формата : Version 1
Профиль формата : Layer 3
Режим : Joint stereo
Идентификатор кодека : 55
Идентификатор кодека/Подсказка : MP3
Продолжительность : 43 м.
Вид битрейта : Постоянный
Битрейт : 128 Кбит/сек
Каналы : 2 канала
Частота : 48,0 КГц
Метод сжатия : С потерями
Размер потока : 39,9 Мбайт (10%)
Выравнивание : Соединение по промежуткам
Продолжительность промежутка : 40 мс. (1,00 видеокадр)
Время предзагрузки промежутка : 504 мс.
Аудио #2
Идентификатор : 2
Формат : MPEG Audio
Версия формата : Version 1
Профиль формата : Layer 3
Режим : Joint stereo
Расширение режима : MS Stereo
Идентификатор кодека : 55
Идентификатор кодека/Подсказка : MP3
Продолжительность : 43 м.
Вид битрейта : Постоянный
Битрейт : 128 Кбит/сек
Каналы : 2 канала
Частота : 48,0 КГц
Метод сжатия : С потерями
Размер потока : 39,9 Мбайт (10%)
Выравнивание : Соединение по промежуткам
Продолжительность промежутка : 40 мс. (1,00 видеокадр)
Время предзагрузки промежутка : 504 мс.
Библиотека кодирования : LAME3.98r
Настройки программы : -m j -V 4 -q 2 -lowpass 17 -b 128
Download / Скачать

Хотите скачать бесплатно? Зарегистрируйтесь на сайте (ссылка на регистрацию). Pirat.ca - самый быстрый торрент трекер в рунете!

Как скачивать  ·   Что такое торрент  ·   Рейтинг и ограничения

Пост 24-Июн-2016 10:19 (спустя 6 часов)

Топик был перенесен из форума Зарубежное Кино (Трюм) в форум Зарубежные сериалы
Андря
 

somik ®

Легенда

26928

Пост 25-Июн-2016 16:29 (спустя 1 день 12 часов)

[Q] 

Уважаемые Пираты! Если кому понравился сериал: - прошу по завершении просмотра сообщить, когда заливать второй и последний сезон. Предупреждаю: второй сезон из-за размера и качества - больше. aa ca

_________________
Всё когда-нибудь уже было... В интернете!
На форуме  [Профиль]  [ЛС] 

Sollius

Лоцман

Пост 07-Июл-2016 19:42 (спустя 12 дней)

[Q] 

Вы бы лучше завязку выложили(XIII:Заговор), он поинтереснее. И написали последовательность просмотра, для тех кто не в теме).
[Профиль]  [ЛС] 
Показать сообщения:    
Ответить на тему

Текущее время: Сегодня 06:07

Часовой пояс: GMT + 4



Вы не можете начинать темы
Вы не можете отвечать на сообщения
Вы не можете редактировать свои сообщения
Вы не можете удалять свои сообщения
Вы не можете голосовать в опросах
Вы не можете прикреплять файлы к сообщениям
Вы не можете скачивать файлы

▼ Вниз