ML
     
  Уважаемый Гость!
Вы можете поддержать проект и зарегистрироваться у наших партнеров - онлайн-стратегия MyLands. При регистрации в игре Вы получите код, который сможете активировать после регистрации на pirat.ca и получить 1000 дублонов.

Ваш код:
c89b4b6523eaac3173e9a9c062ac1a19db575961
 
     

Империя (сериал 2015 – ...) / Empire / Сезон: 1 / Серии: 1-12 из 12 (Санаа Хамри / Sanaa Hamri, ...) [2015 г., драма, музыка, WEB-DLRip] MVO [Amedia] + Original (Eng)

Ответить на тему
 
Автор
Сообщение

Пост 24-Июн-2016 20:20

[Q] 

somik

Легенда

-Империя (сериал 2015 – ...) / Empire-- Производство: США, 20th Century Fox Television
Жанр: драма, музыка
Год выпуска: 2015 г.
Продолжительность: 00:45:00
Мировая премьера: 7 января 2015
Российская премьера: 8 января 2015
Перевод: Профессиональный (многоголосый, закадровый) [Amedia]
Оригинальный аудиопоток: английский
Режиссер: Санаа Хамри / Sanaa Hamri, ...-В ролях: Терренс Ховард, Тараджи П. Хенсон, Трэй Байерс, Джусси Смоллетт, Габури Сидибе, Кэйтлин Даблдэй, Мэлик Йоба, Таша Смит, Рафаэль Де Ла Фуэнте, Лиззи Ли-Описание: История о главе музыкальной империи, который узнает о том, что он неизлечимо болен и что жить ему осталось всего три года. Он желает, чтобы его империя продолжала жить и после него, и потому решает выбрать наследника. Его трое сыновей и бывшая жена начинают борьбу за «трон».-
Качество видео: WEB-DLRip
Контейнер: AVI
Видео кодек: XviD
Аудио кодек: AC3
Видео: 720x400 (1.80:1), 23.976 fps, XviD build 73 ~1599 kbps avg, 0.23 bit/pixel
Аудио: 48 kHz, AC3 Dolby Digital, 2/0 (L,R) ch, ~192 kbps
Аудио #2: 48 kHz, AC3 Dolby Digital, 2/0 (L,R) ch, ~192 kbps
Cубтитры: отсутствуют
Золотой глобус, 2016 год
Победитель (1):
Лучшая женская роль на ТВ (драма) ( Тараджи П. Хенсон )
Номинации (1):
Лучший драматический сериал
Эмми, 2015 год
Номинации (1):
Лучшая женская роль в драматическом сериале (Тараджи П. Хенсон)
Хип и хоп N1
Один из лучших сериалов, который раскрывает мир Hip-Hop-a. Один из лучших сериалов 2015 года. Один из лучших сериалов про семейные ценности современного общества.
Сильные стороны сериала: сюжет, философия, актерский состав, музыкальное сопровождение. Проект состоит фактически из сильных сторон.
Дух мира Hip-Hop и американской мечты в нем воспет капитально и капиталистически. Это острая сюжетная линия со своими поворотами. Сам сериал это и есть иллюстрация рождения Hip-Hop-a. Империю не сломить.
Terrence Howard и Taraji P. Henson вытягивают сериал на своих плечах, на голову выше остального творческого состава. Актеры уже номинировались на Oscar, а обладание статуэтками, — лишь вопрос времени. Во многом.. благодаря этим двоим Империи удалось придать необходимую глубину и реалистичность. Чувствуется, реальный жизненный опыт.
Конечно, сильное внимание уделяется темнокожему и латиноговорящему населению США. По сути, это и есть фундамент современных Штатов. Ну, и двигатель современного Hip-Hop-a. Уж точно один из!
Вывод. Один из редких качественных и интересных сериалов 2015 года. Смотрится на одном дыхании. Авторы постарались максимально, поэтому коммерциализация сериала бьет все рекорды. Контент из проекта в фильме продается в реальной жизни: песни, продукция, другое.
Империя шагнула далеко за пределы своего мира. Мой респект.
10 из 10
Общее
Полное имя : F:\Империя\Empire.S01.2015.[pirat.ca]\Empire.2015.s01e01.[pirat.ca].avi
Формат : AVI
Формат/Информация : Audio Video Interleave
Размер файла : 666 Мбайт
Продолжительность : 46 м.
Общий поток : 1998 Кбит/сек
Название фильма : Empire.2015.s01e01.[pirat.ca]
Программа кодирования : VirtualDubMod 1.5.10.3 | www.virtualdub-fr.org || (build 2550/release)
Видео
Идентификатор : 0
Формат : MPEG-4 Visual
Профиль формата : Advanced [email protected]
Параметр BVOP формата : 2
Параметр QPel формата : Нет
Параметр GMC формата : Без точки перехода
Параметр матрицы формата : Default (MPEG)
Идентификатор кодека : XVID
Идентификатор кодека/Подсказка : XviD
Продолжительность : 46 м.
Битрейт : 1600 Кбит/сек
Ширина : 720 пикселей
Высота : 400 пикселей
Соотношение сторон : 16:9
Частота кадров : 23,976 (23976/1000) кадра/сек
Цветовое пространство : YUV
Субдискретизация насыщенности : 4:2:0
Битовая глубина : 8 бит
Тип развёртки : Прогрессивная
Метод сжатия : С потерями
Бит/(Пиксели*Кадры) : 0.232
Размер потока : 533 Мбайт (80%)
Библиотека кодирования : XviD 73
Аудио #1
Идентификатор : 1
Формат : AC-3
Формат/Информация : Audio Coding 3
Расширение режима : CM (complete main)
Параметр Endianness формата : Big
Идентификатор кодека : 2000
Продолжительность : 46 м.
Вид битрейта : Постоянный
Битрейт : 192 Кбит/сек
Каналы : 2 канала
Расположение каналов : Front: L R
Частота : 48,0 КГц
Частота кадров : 31,250 кадров/сек (1536 spf)
Метод сжатия : С потерями
Размер потока : 64,0 Мбайт (10%)
Выравнивание : Разделение по промежуткам
Продолжительность промежутка : 42 мс. (1,00 видеокадр)
Время предзагрузки промежутка : 500 мс.
Аудио #2
Идентификатор : 2
Формат : AC-3
Формат/Информация : Audio Coding 3
Расширение режима : CM (complete main)
Параметр Endianness формата : Big
Идентификатор кодека : 2000
Продолжительность : 46 м.
Вид битрейта : Постоянный
Битрейт : 192 Кбит/сек
Каналы : 2 канала
Расположение каналов : Front: L R
Частота : 48,0 КГц
Частота кадров : 31,250 кадров/сек (1536 spf)
Метод сжатия : С потерями
Размер потока : 64,0 Мбайт (10%)
Выравнивание : Разделение по промежуткам
Продолжительность промежутка : 42 мс. (1,00 видеокадр)
Время предзагрузки промежутка : 500 мс.
Download / Скачать

Хотите скачать бесплатно? Зарегистрируйтесь на сайте (ссылка на регистрацию). Pirat.ca - самый быстрый торрент трекер в рунете!

Как скачивать  ·   Что такое торрент  ·   Рейтинг и ограничения

Пост 03-Июл-2016 09:52 (спустя 8 дней)

Топик был перенесен из форума Зарубежные сериалы (Трюм) в форум Зарубежные сериалы
Андря
 
Показать сообщения:    
Ответить на тему

Текущее время: Сегодня 22:29

Часовой пояс: GMT + 4



Вы не можете начинать темы
Вы не можете отвечать на сообщения
Вы не можете редактировать свои сообщения
Вы не можете удалять свои сообщения
Вы не можете голосовать в опросах
Вы не можете прикреплять файлы к сообщениям
Вы не можете скачивать файлы

▼ Вниз