ML
     
  Уважаемый Гость!
Вы можете поддержать проект и зарегистрироваться у наших партнеров - онлайн-стратегия MyLands. При регистрации в игре Вы получите код, который сможете активировать после регистрации на pirat.ca и получить 1000 дублонов.

Ваш код:
0fcd44bd35319f69313aa6e53b31c51cbff1c942
 
     

Убийство первой степени /Murder in the First / Сезон 3 / Серии: 10 из 10 (Джесси Бокко / Jesse Bochco, ...) [2016г., драма, криминал, детектив, ... WEB-DLRip] MVO (BaibaKo) + Original (Eng) [финал сезона]

Ответить на тему
 
Автор
Сообщение

Пост 30-Июн-2016 18:35

[Q] 

kugesan

Убийство первой степени /Murder in the First«All lies lead to the truth»- Страна: США
Год выпуска: 2016
Жанр: драма, криминал, детектив, ...-Озвучка: Студия
Перевод: Многоголосый закадровый, профессиональный
Оригинальный аудиопоток: английский-Перевод: Никита Коваль и Татьяна Михеева
Озвучка: Ольга Мотрич, Олекса Мельник, Артемий Мирон и Сергей Корчак
Обложка: Антон Максимов -Премьера (мир): 9 июня 2014, ...-Режиссер: Джесси Бокко / Jesse Bochco, Эллисон Андерс / Allison Anders, Реджинальд Хадлин / Reginald Hudlin, ...
В главных ролях: Йен Энтони Дэйл, Тэй Диггз, Кэтлин Робертсон, Карри Грэм, Мими Кирклэнд, Ричард Шифф, Рафаэль Сбардж, Ломбардо Бойяр, Том Фелтон, Стивен Уэбер, ...-Описание фильма:
В центре сюжета сериала, действие которого разворачивается в Сан-Франциско, находятся детективы Терри Сигрейв и Хилди Маллиган, которые расследуют обычное убийство наркомана, однако в ходе развития дела выходят на генерального директора компании по разработке передовых технологий Эрика Бланта.-Сезон: 3
Серии: 10 из 10 серий
Продолжительность: ~ 00:42:00 мин серия-Качество видео: WEB-DLRip
Формат: AVI
Видеокодек: XviD
Аудио кодек: МР3
Видео: MPEG-4 Visual at 1558 Кбит/сек: 720 x 400 (1.800) at 23.976 fps: 0.26 Бит/Пиксели
Аудио Rus: MPEG Audio at 128 Кбит/сек: 2 канала, 48,0 КГц |BaibaKo|
Аудио Eng: MPEG Audio at 128 Кбит/сек: 2 канала, 48,0 КГц |Original|
- -
Общее
Полное имя : E:\_Сериалы\_Сериалы\Убийство первой степени\Murder in the First (Season 03) BbK\Murder.in.the.First.S03E01.WEBDLRip.XviD.Rus.Eng.BaibaKo.avi
Формат : AVI
Формат/Информация : Audio Video Interleave
Размер файла : 550 Мбайт
Продолжительность : 42 м.
Общий поток : 1828 Кбит/сек
Программа кодирования : VirtualDubMod 1.5.10.3 | www.virtualdub-fr.org || (build 2550/release)
Библиотека кодирования : VirtualDubMod build 2550/release
Видео
Идентификатор : 0
Формат : MPEG-4 Visual
Профиль формата : Advanced [email protected]
Параметр BVOP формата : 1
Параметр QPel формата : Нет
Параметр GMC формата : Без точки перехода
Параметр матрицы формата : Default (MPEG)
Идентификатор кодека : XVID
Идентификатор кодека/Подсказка : XviD
Продолжительность : 42 м.
Битрейт : 1558 Кбит/сек
Ширина : 720 пикселей
Высота : 400 пикселей
Соотношение сторон : 16:9
Частота кадров : 23,976 (23976/1000) кадра/сек
Цветовое пространство : YUV
Субдискретизация насыщенности : 4:2:0
Битовая глубина : 8 бит
Тип развёртки : Прогрессивная
Метод сжатия : С потерями
Бит/(Пиксели*Кадры) : 0.226
Размер потока : 469 Мбайт (85%)
Библиотека кодирования : XviD 73
Аудио #1
Идентификатор : 1
Формат : MPEG Audio
Версия формата : Version 1
Профиль формата : Layer 3
Режим : Joint stereo
Расширение режима : MS Stereo
Идентификатор кодека : 55
Идентификатор кодека/Подсказка : MP3
Продолжительность : 42 м.
Вид битрейта : Постоянный
Битрейт : 128 Кбит/сек
Каналы : 2 канала
Частота : 48,0 КГц
Метод сжатия : С потерями
Размер потока : 38,5 Мбайт (7%)
Выравнивание : Соединение по промежуткам
Продолжительность промежутка : 42 мс. (1,00 видеокадр)
Время предзагрузки промежутка : 504 мс.
Аудио #2
Идентификатор : 2
Формат : MPEG Audio
Версия формата : Version 1
Профиль формата : Layer 3
Режим : Joint stereo
Расширение режима : MS Stereo
Идентификатор кодека : 55
Идентификатор кодека/Подсказка : MP3
Продолжительность : 42 м.
Вид битрейта : Постоянный
Битрейт : 128 Кбит/сек
Каналы : 2 канала
Частота : 48,0 КГц
Метод сжатия : С потерями
Размер потока : 38,5 Мбайт (7%)
Выравнивание : Соединение по промежуткам
Продолжительность промежутка : 42 мс. (1,00 видеокадр)
Время предзагрузки промежутка : 504 мс.
-
-Скриншоты:
-
-
Раздача ведётся путём добавления новых серий; при каждом добавлении создаётся новый торрент.
Чтобы начать докачку новой серии, пользователям необходимо сделать следующее:
1. остановить скачивание,
2. удалить старый торрент у себя из клиента (старые серии удалять не надо),
3. скачать новый торрент и запустить его у себя в клиенте вместо старого, при этом указать клиенту путь в старую папку, куда и должно происходить скачивание новых серий.
Ваш клиент при этом должен произвести хеширование (проверку) старой папки (если не производит сам - помогите ему сделать это), и будет докачивать только те серии которых у вас ещё нет. Старые серии при этом не удаляются, а продолжают раздаваться!
Eсли вы уже удалили старые серии, то предотвратить повторную закачку старых серий можно, отжав галочку в соответствующих местах при запуске нового торрента. По возможности, желательно не удалять старые серии как можно дольше, чтобы релизёр не столько продолжал раздавать старые серии, а смог сконцентрироваться на новых.
Совет для тех, кто не хочет ждать перехеширования:
Создайте ещё одну папку рядом с папкой сериала (рядом, а не в ней!!!). Каждую новую серию после удачной загрузки копируйте в новую папку так чтобы ваша основная папка всегда была пуста. Когда ваш новый торрент предложит вам закачать все файлы, выберете только последнюю. Для сидирования же укажите адрес новой папки.
Как закачать отдельный файл из торрента или докачать ранее пропущенные файлы торрента!
-
1. Открыть торрент
2. Снять галки с тех файлов торрента, которые мы не хотим закачивать. Оставляем только на нужных нам файлах (файле).
3. Нажать О.К.
В клиенте utorrent
Инструкция
1) Открыть торрент

2) Снять галки с тех файлов торрента, которые мы не хотим закачивать:
* либо вручную, снимая с каждого файла галку( скрин №1)
* либо, нажав кнопку "Снять метки (Select None)", сняв сразу со всех файлов(скрин №2)
№1

№2

Оставляем только на нужных нам файлах (файле).

3)Нажать О.К
-Добавлена десятая, заключительная, серия третьего сезона-Приятного просмотра!!!-
Download / Скачать

Хотите скачать бесплатно? Зарегистрируйтесь на сайте (ссылка на регистрацию). Pirat.ca - самый быстрый торрент трекер в рунете!

Как скачивать  ·   Что такое торрент  ·   Рейтинг и ограничения



Последний раз редактировалось: kugesan (2016-09-10 00:44), всего редактировалось 9 раз(а)

kugesan ®

56676

Пост 19-Июл-2016 17:04 (спустя 18 дней)

[Q] 

Реклама удалена полностью!

_________________

В мире две бесконечности: вселенная и человеческая глупость - Альберт Эйнштен
«Можно вытащить человека из грязи, но нельзя вытащить грязь из человека»!
[Профиль]  [ЛС] 

pvm

Корсар

Пост 18-Авг-2016 22:37 (спустя 30 дней)

[Q] 

В центре сюжета сериала, находятся детективы Терри Сигрейв и Хилди Маллиган, которые расследуют обычное убийство наркомана.
Они что 3 сезона ведут расследование одного убийства?
[Профиль]  [ЛС] 

kugesan ®

56676

Пост 19-Авг-2016 12:08 (спустя 13 часов)

[Q] 

763185В центре сюжета сериала, находятся детективы Терри Сигрейв и Хилди Маллиган, которые расследуют обычное убийство наркомана.
Они что 3 сезона ведут расследование одного убийства?
Согласно Правила оформления раздач в разделе Кино, Видео и ТВ, на палубе Авторского перевода.
Описание:
составляется самостоятельно или берётся с
Описание должно вкратце передавать смысл фильма, но не раскрывать его сюжетную линию, дабы не испортить впечатления от просмотра

_________________

В мире две бесконечности: вселенная и человеческая глупость - Альберт Эйнштен
«Можно вытащить человека из грязи, но нельзя вытащить грязь из человека»!
[Профиль]  [ЛС] 

pvm

Корсар

Пост 19-Авг-2016 17:24 (спустя 5 часов)

[Q] 

Оно-то понятно. Но я ищу какой дедективный сериал начать смотреть, а тут "расследуют обычное убийство наркомана". Ну и мучают сомнения.
[Профиль]  [ЛС] 
Показать сообщения:    
Ответить на тему

Текущее время: Сегодня 02:09

Часовой пояс: GMT + 4



Вы не можете начинать темы
Вы не можете отвечать на сообщения
Вы не можете редактировать свои сообщения
Вы не можете удалять свои сообщения
Вы не можете голосовать в опросах
Вы не можете прикреплять файлы к сообщениям
Вы не можете скачивать файлы

▼ Вниз