ML
     
  Уважаемый Гость!
Вы можете поддержать проект и зарегистрироваться у наших партнеров - онлайн-стратегия MyLands. При регистрации в игре Вы получите код, который сможете активировать после регистрации на pirat.ca и получить 1000 дублонов.

Ваш код:
c89b4b6523eaac3173e9a9c062ac1a19db575961
 
     

Тринадцатый / XIII: The Series / 2 сезон / 1-13 из 13 (Дуан Кларк / Duane Clark) [2012 г., боевик, триллер, криминал, детектив, HDRip] DVO

Ответить на тему
 
Автор
Сообщение

Пост 30-Июн-2016 19:21

[Q] 

somik

Легенда

-Тринадцатый / XIII: The Series-- Производство: Канада, Франция, Canal+ [fr], Centre National de la Cinématographie (CNC), Europacorp Television, Jimmy, M6, ...
Год выпуска: 2012 г.
Жанр: боевик, триллер, криминал, детектив
Продолжительность: 00:44:00
Мировая премьера: 15 Oct. 2012
Российская премьера: 16 января 2013
Перевод: Профессиональный (двухголосый, закадровый) [AXN Sci-Fi Россия]
Режиссер: Дуан Кларк / Duane Clark-В ролях: Стюарт Таунсенд, Аиша Тайлер, Вирджиния Ледуайен, Грег Брайк, Стивен МакХэтти, Паулино Нюнс, Катерина Мурино, Тед Атертон, Дэвид Бронфман, Хьюберт Бурдер-Описание: Первая в США женщина-президент убита метким снайперским выстрелом во время выступления в День ветеранов. Убийца не найден. Вскоре после этого в лесу находят таинственного парашютиста. Он ранен и не помнит абсолютно ничего из своего прошлого. На его груди загадочная татуировка — «XIII». Теперь молодому человеку предстоит понять кто он такой и попытаться раскрыть правительственный заговор...
Продолжение минисериала XIII вышедшего в 2008 году.-
Качество видео: HDRip
Контейнер: AVI
Видео кодек: XviD
Аудио кодек: AC3
Видео: 720x400 (1.80:1), 25 fps, XviD build 65 ~1999 kbps avg, 0.28 bit/pixel
Аудио: 48 kHz, AC3 Dolby Digital, 2/0 (L,R) ch, ~192 kbps
Cубтитры: отсутствуют
Я был секретным агентом
Сериал «Тринадцатый» наверно один из лучших в своём жанре! Лично для меня не понятно почему такой качественный сериал остаётся в тени. Скорее всего дело в небольшом бюджете и недостаточной «раскрутке». Посмотреть его стоит обязательно. На мой взгляд у сценаристов вышло отличное продолжение к приквелу 2008г. Очень порадовало, что удалось сохранить практически весь оригинальный актёрский состав. У сериала есть всё, чтобы претендовать на высокие оценки.
1. Сериал удовлетворяет всем современным требованиям жанра: сцены рукопашного боя, перестрелки взрывы, использования всевозможных современных гаджетов и электронных примочек, путешествия по миру главного героя (действие не ограничивается городом или штатом, что придаёт масштабности).
2. К актёрской игре нет никаких претензий, все эмоции или их отсутствие смотрятся более чем правдоподобно. Взять, например, вечно холодный взгляд полковника Эймоса (Грег Брайк).
3. Развитие событий, сюжет — самые главные козыри этого сериала. Сериал интригует практически с самого начала и со временем интрига только возрастает. И, что очень важно, вас не будут мучить долгим ожиданием ответов на возникающие вопросы! Тайны будут раскрываться систематически, что ещё более будет подливать масла в огонь интриги.
4. Концовка сериала выше всяких похвал! Такого поворота сюжета ожидать было очень сложно.
Многие говорят, что «Тринадцатый» это клон Борна, если это даже и так отчасти, то ничего зазорного в нет в том, чтобы использовать идею о потере памяти бывшего агента спецслужб и о его попытках собрать и сложить детали пазла воедино. На мой взгляд сценаристы усовершенствовали эту идею, повторюсь, тем, что дают конкретные ответы на конкретные вопросы, никакой недосказанности.
Смотря этот сериал, понимаешь, что все мы живём под колпаком. Спецслужбы из под земли достанут любого, увидят в камеру пока просто идёшь по улице или вообще со спутника идентифицируют, если захотят. Просто бросает в ужас от всех государственных выкрутасов, что в своей стране, что в чужой с целью наживы.
Ведь в любой сказке только доля сказки. Очень жаль, что сериал «Тринадцатый» не имеет должной популярности. Надеюсь со временем он станет более известным. Жду с нетерпением второго сезона!
P.S. не забудьте сперва посмотреть приквел!
10 из 10
Общее
Полное имя : F:\ПОСЛЕДНИЕ ЗАГРУЗКИ\XIII\Trinadtsatiy.XIII.S02.HDRip.AXN Sci-Fi Россия.[pirat.ca]\XIII.s02e01.rus.avi
Формат : AVI
Формат/Информация : Audio Video Interleave
Размер файла : 732 Мбайт
Продолжительность : 46 м.
Общий поток : 2202 Кбит/сек
Название фильма : XIII.s02e01.rus
Программа кодирования : VirtualDubMod 1.5.10.3 (build 2550/release)
Видео
Идентификатор : 0
Формат : MPEG-4 Visual
Профиль формата : Advanced [email protected]
Параметр BVOP формата : 1
Параметр QPel формата : Нет
Параметр GMC формата : Без точки перехода
Параметр матрицы формата : Default (MPEG)
Идентификатор кодека : XVID
Идентификатор кодека/Подсказка : XviD
Продолжительность : 46 м.
Битрейт : 2000 Кбит/сек
Ширина : 720 пикселей
Высота : 400 пикселей
Соотношение сторон : 16:9
Частота кадров : 25,000 кадров/сек
Цветовое пространство : YUV
Субдискретизация насыщенности : 4:2:0
Битовая глубина : 8 бит
Тип развёртки : Прогрессивная
Метод сжатия : С потерями
Бит/(Пиксели*Кадры) : 0.278
Размер потока : 665 Мбайт (91%)
Библиотека кодирования : XviD 65
Аудио
Идентификатор : 1
Формат : AC-3
Формат/Информация : Audio Coding 3
Расширение режима : CM (complete main)
Параметр Endianness формата : Big
Идентификатор кодека : 2000
Продолжительность : 46 м.
Вид битрейта : Постоянный
Битрейт : 192 Кбит/сек
Каналы : 2 канала
Расположение каналов : Front: L R
Частота : 48,0 КГц
Частота кадров : 31,250 кадров/сек (1536 spf)
Метод сжатия : С потерями
Размер потока : 63,8 Мбайт (9%)
Выравнивание : Разделение по промежуткам
Продолжительность промежутка : 40 мс. (1,00 видеокадр)
Время предзагрузки промежутка : 500 мс.
Download / Скачать

Хотите скачать бесплатно? Зарегистрируйтесь на сайте (ссылка на регистрацию). Pirat.ca - самый быстрый торрент трекер в рунете!

Как скачивать  ·   Что такое торрент  ·   Рейтинг и ограничения

Пост 30-Июн-2016 21:29 (спустя 2 часа 8 минут)

Топик был перенесен из форума Зарубежное Кино (Трюм) в форум Зарубежные сериалы
kugesan
 
Показать сообщения:    
Ответить на тему

Текущее время: Сегодня 22:28

Часовой пояс: GMT + 4



Вы не можете начинать темы
Вы не можете отвечать на сообщения
Вы не можете редактировать свои сообщения
Вы не можете удалять свои сообщения
Вы не можете голосовать в опросах
Вы не можете прикреплять файлы к сообщениям
Вы не можете скачивать файлы

▼ Вниз