ML
     
  Уважаемый Гость!
Вы можете поддержать проект и зарегистрироваться у наших партнеров - онлайн-стратегия MyLands. При регистрации в игре Вы получите код, который сможете активировать после регистрации на pirat.ca и получить 1000 дублонов.

Ваш код:
0ea1bf889af42fca5f67d0a391efb3400850ad7c
 
     

Мертвое лето / Dead of Summer / Сезон: 1 / Серии: 10 из 10 (Норман Бакли / Norman Buckley, ...) [2016 г., ужасы, драма, детектив, ..., WEB-DLRip] MVO (NewStudio) + Original (Eng) [Финал сезона]

Ответить на тему
 
Автор
Сообщение

Пост 03-Июл-2016 22:11

[Q] 

kugesan

-Мертвое лето / Dead of Summer
***
-- Производство: США
Жанр: ужасы, драма, детектив, ...
Год выпуска: 2016 г.-Мировая премьера: 21 июня 2016, ...-Озвучка: Студия
Перевод: Многоголосый закадровый, профессиональный
Оригинальный аудиопоток: английский-Перевод: Александра Цернант
Постер: Vortex-Режиссер: Норман Бакли / Norman Buckley, Мик Гэррис / Mick Garris, Адам Хоровиц / Adam Horowitz, ...-В ролях: Элизабет Митчелл (Деб Карпентер), Элизабет Лэил (Эмми Хьюз), Марк Инделикато (Блэр Рамос), Эли Гори (Джоэл Гудзо), Ронен Рубинштейн (Алекс Пауэлл), Полина Сингер (Джесси Тайлер), Захари Гордан (Блоттер), Зельда Уильямс (Дрю Ривз) ...-Описание:
Однажды летом, в конце 80-х, группа подростков собрала свои рюкзачки, попрощалась с родителями и с чувством томительного предвкушения отправилась в летний лагерь под названием «Стилуотер», обещающий кучу всего интересного. Впереди ребят ждали новые увлекательные знакомства, уютные посиделки у костра, купание в чистейшем озере, свежий воздух, но главное — недели прекрасного времяпрепровождения без унылой зубрежки и гонки за оценками. Однако у лагеря на своих гостей имеются собственные планы: мрачная мифическая сторона этого места медленно пробуждается, чтобы устроить наивным юнцам настоящий бал сатаны. Вместо дурманящей романтики и веселья без конца и края подросткам предстоит пережить самые страшные минуты в их жизни, а кто-то из ребят, возможно, даже останется в этом проклятом лагере навсегда...-Сезон: 1
Серии: 10 из 13 серий
Продолжительность: ~ 00:45:00 мин серия-Качество видео: WEB-DLRip
Контейнер: AVI
Видео кодек: XviD
Аудио кодек: MP3
Видео: MPEG-4 Visual at 1460 Кбит/сек: 720 x 400 (1.800) at 23.976 fps: 0.21 Бит/Пиксели
Аудио Rus: MPEG Audio at 128 Кбит/сек: 2 канала, 48,0 КГц |NewStudio|
Аудио Eng: MPEG Audio at 128 Кбит/сек: 2 канала, 48,0 КГц |Original|
Cубтитры: отсутствуют
- -
«Мертвое лето» — это проект канала FreeForm, сочетающий в себе хоррор, мистику, слэшер и нотки ностальгии по фильмам ужасов 80-х годов. В первую очередь сериал призван вызвать у зрителя теплые воспоминания о пребывании в подростковых лагерях с их ощущением свободы от родительского контроля, веселыми и в меру опасными приключениями и, разумеется, первым близким общением с противоположным полом. Но не все так радужно: жанр «Мертвого лета» предполагает появление настоящей опасности, от которой не спасут даже взрослые. По уверениям создателей, нас ждет микс из культового фильма «Сияние» по Стивену Кингу, суперпопулярного сериала «Американская история ужасов» и полного загадок легендарного «Остаться в живых». Как бы то ни было, Dead of Summer рассчитан на довольно любопытного и смелого зрителя, поскольку этот хоррор, похоже, собирается сделать очень плохую рекламу летним лагерям...
-
Общее
Полное имя : E:\_Сериалы\_Сериалы\Мертвое лето\Dead.of.Summer.s01.WEBDLRip.NewStudio.TV\Dead.of.Summer.s01e01.WEBDLRip.NewStudio.TV.avi
Формат : AVI
Формат/Информация : Audio Video Interleave
Размер файла : 550 Мбайт
Продолжительность : 44 м.
Общий поток : 1730 Кбит/сек
Программа кодирования : VirtualDubMod 1.5.10.2 (build 2540/release)
Библиотека кодирования : VirtualDubMod build 2540/release
Видео
Идентификатор : 0
Формат : MPEG-4 Visual
Профиль формата : Advanced [email protected]
Параметр BVOP формата : 2
Параметр QPel формата : Да
Параметр GMC формата : Без точки перехода
Параметр матрицы формата : Default (MPEG)
Режим смешивания : Сжатый битовый поток
Идентификатор кодека : XVID
Идентификатор кодека/Подсказка : XviD
Продолжительность : 44 м.
Битрейт : 1460 Кбит/сек
Ширина : 720 пикселей
Высота : 400 пикселей
Соотношение сторон : 16:9
Частота кадров : 23,976 (23976/1000) кадра/сек
Цветовое пространство : YUV
Субдискретизация насыщенности : 4:2:0
Битовая глубина : 8 бит
Тип развёртки : Прогрессивная
Метод сжатия : С потерями
Бит/(Пиксели*Кадры) : 0.211
Размер потока : 464 Мбайт (84%)
Библиотека кодирования : XviD 67
Аудио #1
Идентификатор : 1
Формат : MPEG Audio
Версия формата : Version 1
Профиль формата : Layer 3
Режим : Joint stereo
Расширение режима : MS Stereo
Идентификатор кодека : 55
Идентификатор кодека/Подсказка : MP3
Продолжительность : 44 м.
Вид битрейта : Постоянный
Битрейт : 128 Кбит/сек
Каналы : 2 канала
Частота : 48,0 КГц
Метод сжатия : С потерями
Размер потока : 40,7 Мбайт (7%)
Выравнивание : Соединение по промежуткам
Продолжительность промежутка : 42 мс. (1,00 видеокадр)
Время предзагрузки промежутка : 504 мс.
Аудио #2
Идентификатор : 2
Формат : MPEG Audio
Версия формата : Version 1
Профиль формата : Layer 3
Режим : Joint stereo
Идентификатор кодека : 55
Идентификатор кодека/Подсказка : MP3
Продолжительность : 44 м.
Вид битрейта : Постоянный
Битрейт : 128 Кбит/сек
Каналы : 2 канала
Частота : 48,0 КГц
Метод сжатия : С потерями
Размер потока : 40,7 Мбайт (7%)
Выравнивание : Соединение по промежуткам
Продолжительность промежутка : 42 мс. (1,00 видеокадр)
Время предзагрузки промежутка : 504 мс.
Библиотека кодирования : LAME3.99r
Настройки программы : -m j -V 4 -q 2 -lowpass 17 -b 128
-
-Скриншоты:
-
-
Раздача ведётся путём добавления новых серий; при каждом добавлении создаётся новый торрент.
Чтобы начать докачку новой серии, пользователям необходимо сделать следующее:
1. остановить скачивание,
2. удалить старый торрент у себя из клиента (старые серии удалять не надо),
3. скачать новый торрент и запустить его у себя в клиенте вместо старого, при этом указать клиенту путь в старую папку, куда и должно происходить скачивание новых серий.
Ваш клиент при этом должен произвести хеширование (проверку) старой папки (если не производит сам - помогите ему сделать это), и будет докачивать только те серии которых у вас ещё нет. Старые серии при этом не удаляются, а продолжают раздаваться!
Eсли вы уже удалили старые серии, то предотвратить повторную закачку старых серий можно, отжав галочку в соответствующих местах при запуске нового торрента. По возможности, желательно не удалять старые серии как можно дольше, чтобы релизёр не столько продолжал раздавать старые серии, а смог сконцентрироваться на новых.
Совет для тех, кто не хочет ждать перехеширования:
Создайте ещё одну папку рядом с папкой сериала (рядом, а не в ней!!!). Каждую новую серию после удачной загрузки копируйте в новую папку так чтобы ваша основная папка всегда была пуста. Когда ваш новый торрент предложит вам закачать все файлы, выберете только последнюю. Для сидирования же укажите адрес новой папки.
Как закачать отдельный файл из торрента или докачать ранее пропущенные файлы торрента!
-
1. Открыть торрент
2. Снять галки с тех файлов торрента, которые мы не хотим закачивать. Оставляем только на нужных нам файлах (файле).
3. Нажать О.К.
В клиенте utorrent
Инструкция
1) Открыть торрент

2) Снять галки с тех файлов торрента, которые мы не хотим закачивать:
* либо вручную, снимая с каждого файла галку( скрин №1)
* либо, нажав кнопку "Снять метки (Select None)", сняв сразу со всех файлов(скрин №2)
№1

№2

Оставляем только на нужных нам файлах (файле).

3)Нажать О.К
-Добавлена десятая, заключительная, серия первого сезона-Приятного просмотра!!!-
Download / Скачать

Хотите скачать бесплатно? Зарегистрируйтесь на сайте (ссылка на регистрацию). Pirat.ca - самый быстрый торрент трекер в рунете!

Как скачивать  ·   Что такое торрент  ·   Рейтинг и ограничения



Последний раз редактировалось: kugesan (2016-09-03 00:41), всего редактировалось 5 раз(а)

Псих

87

Пост 22-Июл-2016 22:40 (спустя 19 дней)

[Q] 

о, Элизабет Митчелл снимается, норм актриса, надо будет дождаться полного сезона и глянуть :)

_________________
Не забываем говорить
[Профиль]  [ЛС] 

Crackheaded

Шкипер

Пост 29-Июл-2016 13:15 (спустя 6 дней)

[Q] 

Фильм шляпа .....

_________________

[Профиль]  [ЛС] 
Показать сообщения:    
Ответить на тему

Текущее время: Сегодня 00:38

Часовой пояс: GMT + 4



Вы не можете начинать темы
Вы не можете отвечать на сообщения
Вы не можете редактировать свои сообщения
Вы не можете удалять свои сообщения
Вы не можете голосовать в опросах
Вы не можете прикреплять файлы к сообщениям
Вы не можете скачивать файлы

▼ Вниз