ML
     
  Уважаемый Гость!
Вы можете поддержать проект и зарегистрироваться у наших партнеров - онлайн-стратегия MyLands. При регистрации в игре Вы получите код, который сможете активировать после регистрации на pirat.ca и получить 1000 дублонов.

Ваш код:
9cfe162481db953a6549f32179d7b3900b8b8643
 
     

Тёмная материя / Dark Matter / Сезон: 2 / Серии: 13 из 13 (Рон Мерфи / Ron Murphy) [2016г., фантастика, триллер, драма, WEB-DLRip] MVO (LostFilm) + Original (Eng) [финал сезона]

Ответить на тему
 
Автор
Сообщение

Пост 05-Июл-2016 12:20

[Q] 

kugesan

-Тёмная материя / Dark Matter-- Производство: Канада
Жанр: фантастика, триллер, драма
Год выпуска: 2016 г.-Мировая премьера: 12 июня 2015, ...-Озвучка: Студия
Перевод: Многоголосый закадровый, профессиональный-Режиссер: Рон Мерфи / Ron Murphy, Брюс МакДональд / Bruce McDonald, Джон Стэд / John Stead, ...-В ролях: Марк Бендавид (Первый), Мелисса О’Нил (Вторая), Энтони Лемке (Третий), Алекс Маллари мл. (Четвертый), Джодель Ферланд (Пятая), Роджер Р. Кросс (Шестой) ...-Описание:
Заброшенный космический корабль. Шесть человек выходят из состояния стазиса и понимают, что все они потеряли память. Никто из героев не помнит собственного имени, а также того, как и с какой целью он оказался на борту. Каждый из членов экипажа имеет свои способности и навыки, которые, несмотря на амнезию, остались при них. И лишь объединившись в единую команду и заручившись поддержкой находящегося на борту робота, герои смогут понять, что же произошло на самом деле. После чего им предстоит задуматься о выживании, ведь сам корабль и космическое пространство вокруг него таят множество неприятных сюрпризов. Впрочем, чрезвычайно опасны и сами загадочные пассажиры...-Сезон: 2
Серии: 13 из 13 серий
Продолжительность: ~ 00:43:00 мин серия-Качество видео: WEB-DLRip
Контейнер: AVI
Видео кодек: XviD
Аудио кодек: MP3
Видео: MPEG-4 Visual at 1524 Кбит/сек: 720 x 400 (1.800) at 23.976 fps: 0.22 Бит/Пиксели
Аудио Rus: MPEG Audio at 128 Кбит/сек, 2 канала, 48,0 КГц |LostFilm|
Аудио Eng: MPEG Audio at 128 Кбит/сек, 2 канала, 48,0 КГц |Original|
Cубтитры: отсутствуют
- -
  • Добро пожаловать в новый дом (Welcome to Your New Home)
  • Убей их всех! (Kill Them All)
  • Я знала тебя совсем другой (I've Seen the Other Side of You)
  • Мы были семьёй (We Were Family)
  • Мы решили тебя не убивать (We Voted Not to Space You)
  • Мы должны были это предвидеть (We Should Have Seen This Coming)
  • Теперь она с ними (She's One of Them Now)
  • Нас ждут грабежи и убийства (Stuff to Steal, People to Kill)
  • Стреляй (Take the Shot)
  • Надо было выкинуть тебя в космос (Wish I'd Spaced You When I Had the Chance)
  • Иногда выбора действительно нет (Sometimes in Life You Don't Get to Choose)
  • Но сначала спасем галактику (But First, We Save the Galaxy)
-
Общее
Полное имя : E:\_Сериалы\_Сериалы\Темная материя\Dark Matter (Season 02) LostFilm\Dark.Matter.[S02E01].XviD.LostFilm.[qqss44].avi
Формат : AVI
Формат/Информация : Audio Video Interleave
Размер файла : 552 Мбайт
Продолжительность : 43 м.
Общий поток : 1794 Кбит/сек
Программа кодирования : VirtualDubMod 1.5.10.3 | www.virtualdub-fr.org || (build 2550/release)
Библиотека кодирования : VirtualDubMod build 2550/release
Видео
Идентификатор : 0
Формат : MPEG-4 Visual
Профиль формата : Advanced [email protected]
Параметр BVOP формата : 2
Параметр QPel формата : Нет
Параметр GMC формата : Без точки перехода
Параметр матрицы формата : Default (MPEG)
Идентификатор кодека : XVID
Идентификатор кодека/Подсказка : XviD
Продолжительность : 43 м.
Битрейт : 1524 Кбит/сек
Ширина : 720 пикселей
Высота : 400 пикселей
Соотношение сторон : 16:9
Частота кадров : 23,976 (23976/1000) кадра/сек
Цветовое пространство : YUV
Субдискретизация насыщенности : 4:2:0
Битовая глубина : 8 бит
Тип развёртки : Прогрессивная
Метод сжатия : С потерями
Бит/(Пиксели*Кадры) : 0.221
Размер потока : 469 Мбайт (85%)
Библиотека кодирования : XviD 73
Аудио #1
Идентификатор : 1
Формат : MPEG Audio
Версия формата : Version 1
Профиль формата : Layer 3
Режим : Joint stereo
Расширение режима : MS Stereo
Идентификатор кодека : 55
Идентификатор кодека/Подсказка : MP3
Продолжительность : 43 м.
Вид битрейта : Постоянный
Битрейт : 128 Кбит/сек
Каналы : 2 канала
Частота : 48,0 КГц
Метод сжатия : С потерями
Размер потока : 39,4 Мбайт (7%)
Выравнивание : Соединение по промежуткам
Продолжительность промежутка : 42 мс. (1,00 видеокадр)
Время предзагрузки промежутка : 504 мс.
Аудио #2
Идентификатор : 2
Формат : MPEG Audio
Версия формата : Version 1
Профиль формата : Layer 3
Режим : Joint stereo
Расширение режима : MS Stereo
Идентификатор кодека : 55
Идентификатор кодека/Подсказка : MP3
Продолжительность : 43 м.
Вид битрейта : Постоянный
Битрейт : 128 Кбит/сек
Каналы : 2 канала
Частота : 48,0 КГц
Метод сжатия : С потерями
Размер потока : 39,4 Мбайт (7%)
Выравнивание : Соединение по промежуткам
Продолжительность промежутка : 42 мс. (1,00 видеокадр)
Время предзагрузки промежутка : 504 мс.
-
-Скриншоты:
-
-
Раздача ведётся путём добавления новых серий; при каждом добавлении создаётся новый торрент.
Чтобы начать докачку новой серии, пользователям необходимо сделать следующее:
1. остановить скачивание,
2. удалить старый торрент у себя из клиента (старые серии удалять не надо),
3. скачать новый торрент и запустить его у себя в клиенте вместо старого, при этом указать клиенту путь в старую папку, куда и должно происходить скачивание новых серий.
Ваш клиент при этом должен произвести хеширование (проверку) старой папки (если не производит сам - помогите ему сделать это), и будет докачивать только те серии которых у вас ещё нет. Старые серии при этом не удаляются, а продолжают раздаваться!
Eсли вы уже удалили старые серии, то предотвратить повторную закачку старых серий можно, отжав галочку в соответствующих местах при запуске нового торрента. По возможности, желательно не удалять старые серии как можно дольше, чтобы релизёр не столько продолжал раздавать старые серии, а смог сконцентрироваться на новых.
Совет для тех, кто не хочет ждать перехеширования:
Создайте ещё одну папку рядом с папкой сериала (рядом, а не в ней!!!). Каждую новую серию после удачной загрузки копируйте в новую папку так чтобы ваша основная папка всегда была пуста. Когда ваш новый торрент предложит вам закачать все файлы, выберете только последнюю. Для сидирования же укажите адрес новой папки.
Как закачать отдельный файл из торрента или докачать ранее пропущенные файлы торрента!
-
1. Открыть торрент
2. Снять галки с тех файлов торрента, которые мы не хотим закачивать. Оставляем только на нужных нам файлах (файле).
3. Нажать О.К.
В клиенте utorrent
Инструкция
1) Открыть торрент

2) Снять галки с тех файлов торрента, которые мы не хотим закачивать:
* либо вручную, снимая с каждого файла галку( скрин №1)
* либо, нажав кнопку "Снять метки (Select None)", сняв сразу со всех файлов(скрин №2)
№1

№2

Оставляем только на нужных нам файлах (файле).

3)Нажать О.К
-Добавлена тринадцатая, заключительная, серия второго сезона-Приятного просмотра!!!-
Download / Скачать

Хотите скачать бесплатно? Зарегистрируйтесь на сайте (ссылка на регистрацию). Pirat.ca - самый быстрый торрент трекер в рунете!

Как скачивать  ·   Что такое торрент  ·   Рейтинг и ограничения



Последний раз редактировалось: kugesan (2016-09-21 01:07), всего редактировалось 14 раз(а)

pvm

Корсар

Пост 12-Июл-2016 17:40 (спустя 7 дней)

[Q] 

Кто смотрел, отпишитесь о сериале
[Профиль]  [ЛС] 

raul kurochka

Корсар

Пост 27-Авг-2016 03:11 (спустя 1 месяц 14 дней)

[Q] 

758743Кто смотрел, отпишитесь о сериале
Первый сезон вроде ничего идет. По сюжету культового "Мотылька" напоминает. Кучка непойми кого, на легендарной быстрой посудине бороздят просторы необьятной вселенной, разумеется игнорируя все законы физики и логики, остоянно влипая в какие-то лютые замесы))))

_________________
...ЧО ТАКОЙ СЕРЬЕЗНЫЙ???
[Профиль]  [ЛС] 
Показать сообщения:    
Ответить на тему

Текущее время: Сегодня 06:04

Часовой пояс: GMT + 4



Вы не можете начинать темы
Вы не можете отвечать на сообщения
Вы не можете редактировать свои сообщения
Вы не можете удалять свои сообщения
Вы не можете голосовать в опросах
Вы не можете прикреплять файлы к сообщениям
Вы не можете скачивать файлы

▼ Вниз