ML
     
  Уважаемый Гость!
Вы можете поддержать проект и зарегистрироваться у наших партнеров - онлайн-стратегия MyLands. При регистрации в игре Вы получите код, который сможете активировать после регистрации на pirat.ca и получить 1000 дублонов.

Ваш код:
5f4e94775bc0501caff7b254e79328d304c817d9
 
     

Киллджойс / Killjoys / Сезон: 2 / Серии: 10 из 10 (Крис Грисмер / Chris Grismer) [2016 г., фантастика, WEB-DLRip] MVO (BaibaKo) + Original (Eng) [Финал сезона]

Ответить на тему
 
Автор
Сообщение

Пост 07-Июл-2016 00:12

[Q] 

kugesan

-Киллджойс / Killjoys -- Производство: Канада
Жанр: фантастика
Год выпуска: 2016 г.-Мировая премьера: 19 июня 2015-Озвучка: Студия
Перевод: Многоголосый закадровый, профессиональный
Оригинальный аудиопоток: английский-Перевод: Никита Коваль и Татьяна Михеева
Озвучка: Ольга Мотрич, Олекса Мельник, Артемий Мирон и Сергей Корчак
Обложка: Антон Максимов -Режиссер: Крис Грисмер / Chris Grismer, Питер Стеббинг / Peter Stebbings, Паоло Барзмен / Paolo Barzman, ...-В ролях: Аарон Эшмор (Джон), Ханна Джон-Кэймен (Датч), Люк Макфарлейн (Д'Эвин), Том Эллисон (При), Тамсен МакДонаф (Люси), Сара Пауэр (Потер), Морган Келли (Элвис) ...-Описание:
В далекой-далекой межпланетной системе трое смелых, ловких и чертовски привлекательных наемников ведут бесконечную охоту за преступными элементами. Кредо команды — не занимать ничью сторону. Однако в раздираемой локальными боями галактике сделать это очень непросто. Их мир стоит на грани межклассовой войны, а задания, которые получают охотники за головами, становятся все сложней и опасней. Но Датч, Джон и Д'Эвин — редкие профессионалы, которые обладают не только всеми необходимыми для этой работы навыками, но и жаждой приключений, чувством юмора и способностью не терять присутствия духа в непредвиденных ситуациях. Они готовы в любой момент сорваться с места, чтобы отправиться на чужую территорию и любыми способами заполучить то, что необходимо заказчику. Даже если ради достижения цели придется обойти парочку законов и нарушить несколько правил...-Сезон: 2
Серии: 10 из 10 серий
Продолжительность: ~ 00:42:00 мин серия-Качество видео: WEB-DLRip
Контейнер: AVI
Видео кодек: XviD
Аудио кодек: MP3
Аудио кодек: AC-3
Видео: MPEG-4 Visual at 1802 Кбит/сек: 720 x 400 (1.800) at 23.976 fps: 0.26 Бит/Пиксели
Аудио Rus: AC-3 at 384 Кбит/сек: 6 каналов, 48,0 КГц |BaibaKo|
Аудио Eng: AC-3 at 384 Кбит/сек: 6 каналов, 48,0 КГц |Original|
Cубтитры: отсутствуют
- -
Общее
Полное имя : E:\_Сериалы\_Сериалы\Киллджойс\Killjoys.s02.WEB-DLRip.Rus.Eng.BaibaKo\Killjoys.s02e01.WEB-DLRip.Rus.Eng.BaibaKo.tv.avi
Формат : AVI
Формат/Информация : Audio Video Interleave
Размер файла : 780 Мбайт
Продолжительность : 42 м.
Общий поток : 2584 Кбит/сек
Программа кодирования : VirtualDubMod 1.5.10.3 | www.virtualdub-fr.org || (build 2550/release)
Библиотека кодирования : VirtualDubMod build 2550/release
Видео
Идентификатор : 0
Формат : MPEG-4 Visual
Профиль формата : Advanced [email protected]
Параметр BVOP формата : 2
Параметр QPel формата : Нет
Параметр GMC формата : Без точки перехода
Параметр матрицы формата : Default (MPEG)
Идентификатор кодека : XVID
Идентификатор кодека/Подсказка : XviD
Продолжительность : 42 м.
Битрейт : 1802 Кбит/сек
Ширина : 720 пикселей
Высота : 400 пикселей
Соотношение сторон : 16:9
Частота кадров : 23,976 (23976/1000) кадра/сек
Цветовое пространство : YUV
Субдискретизация насыщенности : 4:2:0
Битовая глубина : 8 бит
Тип развёртки : Прогрессивная
Метод сжатия : С потерями
Бит/(Пиксели*Кадры) : 0.261
Размер потока : 544 Мбайт (70%)
Библиотека кодирования : XviD 73
Аудио #1
Идентификатор : 1
Формат : AC-3
Формат/Информация : Audio Coding 3
Расширение режима : CM (complete main)
Параметр Endianness формата : Big
Идентификатор кодека : 2000
Продолжительность : 42 м.
Вид битрейта : Постоянный
Битрейт : 384 Кбит/сек
Каналы : 6 каналов
Расположение каналов : Front: L C R, Side: L R, LFE
Частота : 48,0 КГц
Частота кадров : 31,250 кадров/сек (1536 spf)
Метод сжатия : С потерями
Задержка видео : 16 мс.
Размер потока : 116 Мбайт (15%)
Выравнивание : Разделение по промежуткам
Продолжительность промежутка : 42 мс. (1,00 видеокадр)
Время предзагрузки промежутка : 500 мс.
Аудио #2
Идентификатор : 2
Формат : AC-3
Формат/Информация : Audio Coding 3
Расширение режима : CM (complete main)
Параметр Endianness формата : Big
Идентификатор кодека : 2000
Продолжительность : 42 м.
Вид битрейта : Постоянный
Битрейт : 384 Кбит/сек
Каналы : 6 каналов
Расположение каналов : Front: L C R, Side: L R, LFE
Частота : 48,0 КГц
Частота кадров : 31,250 кадров/сек (1536 spf)
Метод сжатия : С потерями
Задержка видео : 16 мс.
Размер потока : 116 Мбайт (15%)
Выравнивание : Разделение по промежуткам
Продолжительность промежутка : 42 мс. (1,00 видеокадр)
Время предзагрузки промежутка : 500 мс.
-
-Скриншоты:
-
-
Раздача ведётся путём добавления новых серий; при каждом добавлении создаётся новый торрент.
Чтобы начать докачку новой серии, пользователям необходимо сделать следующее:
1. остановить скачивание,
2. удалить старый торрент у себя из клиента (старые серии удалять не надо),
3. скачать новый торрент и запустить его у себя в клиенте вместо старого, при этом указать клиенту путь в старую папку, куда и должно происходить скачивание новых серий.
Ваш клиент при этом должен произвести хеширование (проверку) старой папки (если не производит сам - помогите ему сделать это), и будет докачивать только те серии которых у вас ещё нет. Старые серии при этом не удаляются, а продолжают раздаваться!
Eсли вы уже удалили старые серии, то предотвратить повторную закачку старых серий можно, отжав галочку в соответствующих местах при запуске нового торрента. По возможности, желательно не удалять старые серии как можно дольше, чтобы релизёр не столько продолжал раздавать старые серии, а смог сконцентрироваться на новых.
Совет для тех, кто не хочет ждать перехеширования:
Создайте ещё одну папку рядом с папкой сериала (рядом, а не в ней!!!). Каждую новую серию после удачной загрузки копируйте в новую папку так чтобы ваша основная папка всегда была пуста. Когда ваш новый торрент предложит вам закачать все файлы, выберете только последнюю. Для сидирования же укажите адрес новой папки.
Как закачать отдельный файл из торрента или докачать ранее пропущенные файлы торрента!
-
1. Открыть торрент
2. Снять галки с тех файлов торрента, которые мы не хотим закачивать. Оставляем только на нужных нам файлах (файле).
3. Нажать О.К.
В клиенте utorrent
Инструкция
1) Открыть торрент

2) Снять галки с тех файлов торрента, которые мы не хотим закачивать:
* либо вручную, снимая с каждого файла галку( скрин №1)
* либо, нажав кнопку "Снять метки (Select None)", сняв сразу со всех файлов(скрин №2)
№1

№2

Оставляем только на нужных нам файлах (файле).

3)Нажать О.К
-Добавлена десятая, заключительная, серия второго сезона-Приятного просмотра!!!-
Download / Скачать

Хотите скачать бесплатно? Зарегистрируйтесь на сайте (ссылка на регистрацию). Pirat.ca - самый быстрый торрент трекер в рунете!

Как скачивать  ·   Что такое торрент  ·   Рейтинг и ограничения



Последний раз редактировалось: kugesan (2016-09-04 15:25), всего редактировалось 10 раз(а)

megamastor

2827

Пост 11-Июл-2016 00:03 (спустя 3 дня)

[Q] 

Лови бочку! Как всегда в теме! Лови бочку
[Профиль]  [ЛС] 

Ya Fratkin

Морской Волк

Пост 26-Авг-2016 21:16 (спустя 1 месяц 15 дней)

[Q] 

Лови бочку БОЛЬШОЕ СПАСИБО!
[Профиль]  [ЛС] 

kugesan ®

56607

Пост 27-Авг-2016 00:15 (спустя 2 часа 58 минут)

[Q] 

Приятного просмотра!!!

_________________

В мире две бесконечности: вселенная и человеческая глупость - Альберт Эйнштен
«Можно вытащить человека из грязи, но нельзя вытащить грязь из человека»!
[Профиль]  [ЛС] 
Показать сообщения:    
Ответить на тему

Текущее время: Сегодня 15:34

Часовой пояс: GMT + 4



Вы не можете начинать темы
Вы не можете отвечать на сообщения
Вы не можете редактировать свои сообщения
Вы не можете удалять свои сообщения
Вы не можете голосовать в опросах
Вы не можете прикреплять файлы к сообщениям
Вы не можете скачивать файлы

▼ Вниз