ML
     
  Уважаемый Гость!
Вы можете поддержать проект и зарегистрироваться у наших партнеров - онлайн-стратегия MyLands. При регистрации в игре Вы получите код, который сможете активировать после регистрации на pirat.ca и получить 1000 дублонов.

Ваш код:
0fcd44bd35319f69313aa6e53b31c51cbff1c942
 
     

Тиран / Tyrant / Сезон: 3 / Серии: 10 из 10 (Майкл Леманн / Michael Lehmann, ...) [2016г., боевик, триллер, драма, ..., WEB-DLRip] MVO (NewStudio) [финал сезона]

Ответить на тему
 
Автор
Сообщение

Пост 14-Июл-2016 15:21

[Q] 

kugesan

Тиран / Tyrant - Русское название: Тиран
Оригинальное название: Tyrant
Производство: США
Год выпуска: 2016
Жанр: боевик, триллер, драма, ...-Озвучка: Студия
Перевод: Многоголосый закадровый, профессиональный
Оригинальный аудиопоток: английский-Перевод: Юля Мейер
Постер: Vortex-Премьера (мир): 24 июня 2014, ...-Режиссер: Майкл Леманн / Michael Lehmann, Гвинет Хердер-Пэйтон / Gwyneth Horder-Payton, Дэвид Петрарка / David Petrarca, ...
В главных ролях: Адам Рэйнер, Софи Тэйлор Али, Моран Атиас, Рой Авигдори, Мохаммад Бакри, Ашраф Бархом, Амир Бутрус, Сибулла Дин, Мехди Дехби, ...-Описание фильма:
Сюжет Тирана разворачивается в самой политически неустойчивой и взрывоопасной точке нашего мира — на Ближнем Востоке, где, как известно, сосредоточено множество военных конфликтов (от гражданской войны в Сирии до бесконечного арабо-израильского противостояния). Главный герой Бассам «Барри» Аль Фаед, сын ближневосточного диктатора, разумеется, вымышленного арабского государства Балади (хотя особенно внимательные зрители узнают в кадре ландшафты Израиля). Он жил своей собственной жизнью в Лос-Анджелесе около 20 лет, женился на американке. Но судьба заставила его вернуться на родную землю.-Сезон: 3
Серии: 10 из 10 серий
Продолжительность: ~ 00:50:00 мин серия-Качество видео: WEB-DLRip
Формат: AVI
Видеокодек: XviD
Аудиокодек: Mp3
Видео: MPEG-4 Visual at 1187 Кбит/сек: 720 x 400 (1.800) at 23.976 fps, 0.17 Бит/Пиксели
Аудио Rus: MPEG Audio at 128 Кбит/сек: 2 канала, 48,0 КГц |NewStudio|
- -
  • Весна
  • Таракан
  • И мертвые, и живые
  • Помолимся за наших дочерей
  • Меж двух огней
  • Истина и Достоинство
  • Союзники
  • Проси возможного
  • Как надо жить
  • Две могилы
-
Общее
Полное имя : E:\_Сериалы\_Сериалы\Тиран\Tyrant (Season 03) NewStudio\Tyrant.s03e01.WEBDLRip.NewStudio.avi
Формат : AVI
Формат/Информация : Audio Video Interleave
Размер файла : 472 Мбайт
Продолжительность : 49 м. 46 с.
Общий поток : 1324 Кбит/сек
Программа кодирования : VirtualDubMod 1.5.10.2 (build 2540/release)
Библиотека кодирования : VirtualDub build 35491/release
Видео
Идентификатор : 0
Формат : MPEG-4 Visual
Профиль формата : Advanced [email protected]
Параметр BVOP формата : 2
Параметр QPel формата : Да
Параметр GMC формата : Без точки перехода
Параметр матрицы формата : Default (MPEG)
Режим смешивания : Сжатый битовый поток
Идентификатор кодека : XVID
Идентификатор кодека/Подсказка : XviD
Продолжительность : 49 м. 46 с.
Битрейт : 1187 Кбит/сек
Ширина : 720 пикселей
Высота : 400 пикселей
Соотношение сторон : 16:9
Частота кадров : 23,976 (23976/1000) кадра/сек
Цветовое пространство : YUV
Субдискретизация насыщенности : 4:2:0
Битовая глубина : 8 бит
Тип развёртки : Прогрессивная
Метод сжатия : С потерями
Бит/(Пиксели*Кадры) : 0.172
Размер потока : 423 Мбайт (90%)
Библиотека кодирования : XviD 73
Аудио
Идентификатор : 1
Формат : MPEG Audio
Версия формата : Version 1
Профиль формата : Layer 3
Режим : Joint stereo
Расширение режима : MS Stereo
Идентификатор кодека : 55
Идентификатор кодека/Подсказка : MP3
Продолжительность : 49 м. 46 с.
Вид битрейта : Постоянный
Битрейт : 128 Кбит/сек
Каналы : 2 канала
Частота : 48,0 КГц
Метод сжатия : С потерями
Размер потока : 45,6 Мбайт (10%)
Выравнивание : Соединение по промежуткам
Продолжительность промежутка : 42 мс. (1,00 видеокадр)
Время предзагрузки промежутка : 504 мс.
-
-Скриншоты:
-
-
-
Раздача ведётся путём добавления новых серий; при каждом добавлении создаётся новый торрент.
Чтобы начать докачку новой серии, пользователям необходимо сделать следующее:
1. остановить скачивание,
2. удалить старый торрент у себя из клиента (старые серии удалять не надо),
3. скачать новый торрент и запустить его у себя в клиенте вместо старого, при этом указать клиенту путь в старую папку, куда и должно происходить скачивание новых серий.
Ваш клиент при этом должен произвести хеширование (проверку) старой папки (если не производит сам - помогите ему сделать это), и будет докачивать только те серии которых у вас ещё нет. Старые серии при этом не удаляются, а продолжают раздаваться!
Eсли вы уже удалили старые серии, то предотвратить повторную закачку старых серий можно, отжав галочку в соответствующих местах при запуске нового торрента. По возможности, желательно не удалять старые серии как можно дольше, чтобы релизёр не столько продолжал раздавать старые серии, а смог сконцентрироваться на новых.
Совет для тех, кто не хочет ждать перехеширования:
Создайте ещё одну папку рядом с папкой сериала (рядом, а не в ней!!!). Каждую новую серию после удачной загрузки копируйте в новую папку так чтобы ваша основная папка всегда была пуста. Когда ваш новый торрент предложит вам закачать все файлы, выберете только последнюю. Для сидирования же укажите адрес новой папки.
Как закачать отдельный файл из торрента или докачать ранее пропущенные файлы торрента!
-
1. Открыть торрент
2. Снять галки с тех файлов торрента, которые мы не хотим закачивать. Оставляем только на нужных нам файлах (файле).
3. Нажать О.К.
В клиенте utorrent
Инструкция
1) Открыть торрент

2) Снять галки с тех файлов торрента, которые мы не хотим закачивать:
* либо вручную, снимая с каждого файла галку( скрин №1)
* либо, нажав кнопку "Снять метки (Select None)", сняв сразу со всех файлов(скрин №2)
№1

№2

Оставляем только на нужных нам файлах (файле).

3)Нажать О.К
-Добавлена десятая, заключительная, серия второго сезона-Приятного просмотра!!!-
Download / Скачать

Хотите скачать бесплатно? Зарегистрируйтесь на сайте (ссылка на регистрацию). Pirat.ca - самый быстрый торрент трекер в рунете!

Как скачивать  ·   Что такое торрент  ·   Рейтинг и ограничения

Показать сообщения:    
Ответить на тему

Текущее время: Сегодня 02:08

Часовой пояс: GMT + 4



Вы не можете начинать темы
Вы не можете отвечать на сообщения
Вы не можете редактировать свои сообщения
Вы не можете удалять свои сообщения
Вы не можете голосовать в опросах
Вы не можете прикреплять файлы к сообщениям
Вы не можете скачивать файлы

▼ Вниз