ML
     
  Уважаемый Гость!
Вы можете поддержать проект и зарегистрироваться у наших партнеров - онлайн-стратегия MyLands. При регистрации в игре Вы получите код, который сможете активировать после регистрации на pirat.ca и получить 1000 дублонов.

Ваш код:
f612af22ea70acf5cbe90707ac5a076d215f8f7f
 
     

С любовью, Нина (мини-сериал) / Love, Nina (С.Дж. Кларксон / S.J. Clarkson) [2016 г., комедия, HDTVRip] [1-5 серии из 5] MVO

Ответить на тему
 
Автор
Сообщение

Пост 14-Июл-2016 22:42

[Q] 

somik

Легенда

-С любовью, Нина (мини-сериал) / Love, Nina / 1-5 серии из 5-- Производство: Великобритания, See-Saw Films, DNegTV
Год выпуска: 2016 г.
Жанр: комедия
Продолжительность: 02:17:19
Мировая премьера: 17 февраля 2016
Перевод: Профессиональный (многоголосый, закадровый) [NewStudio]
Режиссер: С.Дж. Кларксон / S.J. Clarkson-В ролях: Фэй Марсей, Хелена Бонем Картер, Джонатан Арис, Джош МакГуайр, Джейсон Уоткинс и др.-Описание: Действие происходит в 1982 году. 21-летняя Нина из Лестера переезжает в Северный Лондон, чтобы присматривать за двумя мальчишками, сыновьями матери-одиночки Джорджии.-
Качество видео: HDTVRip
Контейнер: AVI
Видео кодек: XviD
Аудио кодек: MP3
Видео: 720x400 (1.80:1), 25 fps, XviD MPEG-4 ~1467 kbps avg, 0.20 bit/pixel
Аудио: 48 kHz, MPEG Layer 3, 2 ch, ~128.00 kbps avg
Cубтитры: отсутствуют
Общее
Полное имя : F:\С любовью, Нина\S ljubovju, Nina.2016.[pirat.ca]\01.S ljubovju, Nina.2016.[pirat.ca].avi
Формат : AVI
Формат/Информация : Audio Video Interleave
Размер файла : 313 Мбайт
Продолжительность : 27 м.
Общий поток : 1605 Кбит/сек
Название фильма : 01.S ljubovju, Nina.2016.[pirat.ca]
Программа кодирования : VirtualDubMod 1.5.10.2 (build 2540/release)
Видео
Идентификатор : 0
Формат : MPEG-4 Visual
Профиль формата : Advanced [email protected]
Параметр BVOP формата : 2
Параметр QPel формата : Нет
Параметр GMC формата : Без точки перехода
Параметр матрицы формата : Default (MPEG)
Идентификатор кодека : XVID
Идентификатор кодека/Подсказка : XviD
Продолжительность : 27 м.
Битрейт : 1467 Кбит/сек
Ширина : 720 пикселей
Высота : 400 пикселей
Соотношение сторон : 16:9
Частота кадров : 25,000 кадров/сек
Цветовое пространство : YUV
Субдискретизация насыщенности : 4:2:0
Битовая глубина : 8 бит
Тип развёртки : Прогрессивная
Метод сжатия : С потерями
Бит/(Пиксели*Кадры) : 0.204
Размер потока : 286 Мбайт (91%)
Библиотека кодирования : XviD 73
Аудио
Идентификатор : 1
Формат : MPEG Audio
Версия формата : Version 1
Профиль формата : Layer 3
Режим : Joint stereo
Расширение режима : MS Stereo
Идентификатор кодека : 55
Идентификатор кодека/Подсказка : MP3
Продолжительность : 27 м.
Вид битрейта : Постоянный
Битрейт : 128 Кбит/сек
Каналы : 2 канала
Частота : 48,0 КГц
Метод сжатия : С потерями
Размер потока : 25,0 Мбайт (8%)
Выравнивание : Соединение по промежуткам
Продолжительность промежутка : 40 мс. (1,00 видеокадр)
Время предзагрузки промежутка : 504 мс.
Download / Скачать

Хотите скачать бесплатно? Зарегистрируйтесь на сайте (ссылка на регистрацию). Pirat.ca - самый быстрый торрент трекер в рунете!

Как скачивать  ·   Что такое торрент  ·   Рейтинг и ограничения

somik ®

Легенда

27237

Пост 14-Июл-2016 22:51 (спустя 8 минут)

[Q] 

Извините: реклама! ca

_________________
Всё когда-нибудь уже было... В интернете!
[Профиль]  [ЛС] 

erchine

44809

Пост 15-Июл-2016 10:52 (спустя 12 часов)

[Q] 

Раз
Извините: реклама! ca
значит T - временно
[Профиль]  [ЛС] 

Пост 15-Июл-2016 10:53 (спустя 33 секунды)

Топик был перенесен из форума Зарубежное Кино (Трюм) в форум Зарубежные сериалы
erchine
 
Показать сообщения:    
Ответить на тему

Текущее время: Сегодня 00:28

Часовой пояс: GMT + 4



Вы не можете начинать темы
Вы не можете отвечать на сообщения
Вы не можете редактировать свои сообщения
Вы не можете удалять свои сообщения
Вы не можете голосовать в опросах
Вы не можете прикреплять файлы к сообщениям
Вы не можете скачивать файлы

▼ Вниз