ML
     
  Уважаемый Гость!
Вы можете поддержать проект и зарегистрироваться у наших партнеров - онлайн-стратегия MyLands. При регистрации в игре Вы получите код, который сможете активировать после регистрации на pirat.ca и получить 1000 дублонов.

Ваш код:
73640f24f8a0f579e128ea7346fd2db2b1009143
 
     

Мистер Робот / Mr. Robot / Сезон: 2 / Серии: 12 из 12 (Сэм Эсмейл / Sam Esmail) [2016, триллер, драма, криминал, WEB-DLRip] MVO (OMSKBIRD) + Original (Eng) [Финал]

Ответить на тему
 
Автор
Сообщение

Пост 17-Июл-2016 00:19

[Q] 

kugesan

Мистер Робот / Mr. Robot «I'm crazy. This is crazy. I'm crazy»- Производство: США
Год выпуска: 2016
Жанр: триллер, драма, криминал, ...-Озвучка: Студия
Перевод: Многоголосый закадровый, профессиональный
Оригинальный аудиопоток: английский-ПереводАлексей Ярополов
Роли озвучивалиПавел Ярощик, Алексей Гнеушев, Андрей Астров, Наталья Ланц
ЗвукорежиссерПавел Квентов
ПостерКсения Просветова
Релиз подготовилGater-Премьера (мир): 17 марта 2015, ...-Режиссер: Сэм Эсмейл / Sam Esmail, Джим МакКэй / Jim McKay, Тришиа Брок / Tricia Brock, ...
В главных ролях: Рами Малек, Брюс Олтмен, Майкл Бушеми, Карли Чаикин, Самрат Чакрабарти, Портия Даблдэй, Маурицио Ферриньо, Майкл Гилл, Джереми С. Холм, Диллон Мэтьюз, ...-Описание фильма:
История молодого программиста Эллиота, страдающего диссоциальным расстройством личности и решившего, что единственный приемлемый для него способ взаимодействия с людьми - это профессия хакера. Таким образом, он быстро оказывается в том самом месте, где пересекаются интересы его работодателя - фирмы, занимающейся кибербезопасностью, - и подпольных организаций, которые пытаются его завербовать с целью обрушения самых могучих американских корпораций.
Сюжет: Сюжет сериала построен вокруг истории нелюдимого хакера-отшельника, который страдает диссоциальным расстройством личности. Несмотря на этот коммуникативный недостаток, главный герой обладает обостренным чувством справедливости, поэтому берет на себя роль виртуального мстителя. С помощью своих способностей он по мере сил избавляет социум от корпоративных монстров и всякого отребья.-Сезон: 2
Серии: 12 из 12 серий
Продолжительность: ~ 00:42:00 мин серия-Качество видео: WEB-DLRip
Формат: AVI
Видеокодек: XviD
Аудио кодек: AC-3
Видео: MPEG-4 Visual at 1790 Кбит/сек: 720 x 400 (1.800) at 23.976 fps: 0.26 Бит/Пиксели
Аудио Rus: AC-3 at 384 Кбит/сек: 6 каналов, 48,0 КГц |OMSKBIRD|
Аудио Eng: AC-3 at 384 Кбит/сек: 6 каналов, 48,0 КГц |Original|
- -
Общее
Полное имя : E:\_Сериалы\_Сериалы\Мистер Робот\Mr.Robot S02 WEB-DLRip (OMSKBIRD)\Mr.Robot S02E01 WEB-DLRip (OMSKBIRD).avi
Формат : AVI
Формат/Информация : Audio Video Interleave
Размер файла : 755 Мбайт
Продолжительность : 41 м.
Общий поток : 2572 Кбит/сек
Программа кодирования : VirtualDubMod 1.5.10.3 | www.virtualdub-fr.org || (build 2550/release)
Библиотека кодирования : VirtualDubMod build 2550/release
Видео
Идентификатор : 0
Формат : MPEG-4 Visual
Профиль формата : Advanced [email protected]
Параметр BVOP формата : 1
Параметр QPel формата : Нет
Параметр GMC формата : Без точки перехода
Параметр матрицы формата : Default (MPEG)
Идентификатор кодека : XVID
Идентификатор кодека/Подсказка : XviD
Продолжительность : 41 м.
Битрейт : 1790 Кбит/сек
Ширина : 720 пикселей
Высота : 400 пикселей
Соотношение сторон : 16:9
Частота кадров : 23,976 (23976/1000) кадра/сек
Цветовое пространство : YUV
Субдискретизация насыщенности : 4:2:0
Битовая глубина : 8 бит
Тип развёртки : Прогрессивная
Метод сжатия : С потерями
Бит/(Пиксели*Кадры) : 0.259
Размер потока : 526 Мбайт (70%)
Библиотека кодирования : XviD 1.2.1 (UTC 2008-12-04)
Аудио #1
Идентификатор : 1
Формат : AC-3
Формат/Информация : Audio Coding 3
Расширение режима : CM (complete main)
Параметр Endianness формата : Big
Идентификатор кодека : 2000
Продолжительность : 41 м.
Вид битрейта : Постоянный
Битрейт : 384 Кбит/сек
Каналы : 6 каналов
Расположение каналов : Front: L C R, Side: L R, LFE
Частота : 48,0 КГц
Частота кадров : 31,250 кадров/сек (1536 spf)
Метод сжатия : С потерями
Размер потока : 113 Мбайт (15%)
Выравнивание : Разделение по промежуткам
Продолжительность промежутка : 42 мс. (1,00 видеокадр)
Время предзагрузки промежутка : 500 мс.
Аудио #2
Идентификатор : 2
Формат : AC-3
Формат/Информация : Audio Coding 3
Расширение режима : CM (complete main)
Параметр Endianness формата : Big
Идентификатор кодека : 2000
Продолжительность : 41 м.
Вид битрейта : Постоянный
Битрейт : 384 Кбит/сек
Каналы : 6 каналов
Расположение каналов : Front: L C R, Side: L R, LFE
Частота : 48,0 КГц
Частота кадров : 31,250 кадров/сек (1536 spf)
Метод сжатия : С потерями
Размер потока : 113 Мбайт (15%)
Выравнивание : Разделение по промежуткам
Продолжительность промежутка : 42 мс. (1,00 видеокадр)
Время предзагрузки промежутка : 500 мс.
-
-Скриншоты:
-
-
Раздача ведётся путём добавления новых серий; при каждом добавлении создаётся новый торрент.
Чтобы начать докачку новой серии, пользователям необходимо сделать следующее:
1. остановить скачивание,
2. удалить старый торрент у себя из клиента (старые серии удалять не надо),
3. скачать новый торрент и запустить его у себя в клиенте вместо старого, при этом указать клиенту путь в старую папку, куда и должно происходить скачивание новых серий.
Ваш клиент при этом должен произвести хеширование (проверку) старой папки (если не производит сам - помогите ему сделать это), и будет докачивать только те серии которых у вас ещё нет. Старые серии при этом не удаляются, а продолжают раздаваться!
Eсли вы уже удалили старые серии, то предотвратить повторную закачку старых серий можно, отжав галочку в соответствующих местах при запуске нового торрента. По возможности, желательно не удалять старые серии как можно дольше, чтобы релизёр не столько продолжал раздавать старые серии, а смог сконцентрироваться на новых.
Совет для тех, кто не хочет ждать перехеширования:
Создайте ещё одну папку рядом с папкой сериала (рядом, а не в ней!!!). Каждую новую серию после удачной загрузки копируйте в новую папку так чтобы ваша основная папка всегда была пуста. Когда ваш новый торрент предложит вам закачать все файлы, выберете только последнюю. Для сидирования же укажите адрес новой папки.
Как закачать отдельный файл из торрента или докачать ранее пропущенные файлы торрента!
-
1. Открыть торрент
2. Снять галки с тех файлов торрента, которые мы не хотим закачивать. Оставляем только на нужных нам файлах (файле).
3. Нажать О.К.
В клиенте utorrent
Инструкция
1) Открыть торрент

2) Снять галки с тех файлов торрента, которые мы не хотим закачивать:
* либо вручную, снимая с каждого файла галку( скрин №1)
* либо, нажав кнопку "Снять метки (Select None)", сняв сразу со всех файлов(скрин №2)
№1

№2

Оставляем только на нужных нам файлах (файле).

3)Нажать О.К
-Добавлена двенадцатая, заключительная, серия второго сезона-Приятного просмотра!!!-
Download / Скачать

Хотите скачать бесплатно? Зарегистрируйтесь на сайте (ссылка на регистрацию). Pirat.ca - самый быстрый торрент трекер в рунете!

Как скачивать  ·   Что такое торрент  ·   Рейтинг и ограничения



Последний раз редактировалось: kugesan (2016-09-24 18:01), всего редактировалось 3 раз(а)

HRam

Шкипер

Пост 06-Сен-2016 10:02 (спустя 1 месяц 20 дней)

[Q] 

Спасибо!!!
[Профиль]  [ЛС] 
Показать сообщения:    
Ответить на тему

Текущее время: Сегодня 22:38

Часовой пояс: GMT + 4



Вы не можете начинать темы
Вы не можете отвечать на сообщения
Вы не можете редактировать свои сообщения
Вы не можете удалять свои сообщения
Вы не можете голосовать в опросах
Вы не можете прикреплять файлы к сообщениям
Вы не можете скачивать файлы

▼ Вниз