ML
     
  Уважаемый Гость!
Вы можете поддержать проект и зарегистрироваться у наших партнеров - онлайн-стратегия MyLands. При регистрации в игре Вы получите код, который сможете активировать после регистрации на pirat.ca и получить 1000 дублонов.

Ваш код:
db0e0ad91548759ffeb9bb88bed405e1a4b3c165
 
     

Рождение мафии: Чикаго / The Making of the Mob: Chicago / Сезон: 2 / Серии: 8 из 8 (Джон Илер / John Ealer) [2016 г., криминал, история, драма, документальный, ..., WEB-Rip] MVO (BaibaKo) + Original (Eng) [Финал сезона]

Ответить на тему
 
Автор
Сообщение

Пост 19-Июл-2016 16:39

[Q] 

kugesan

-Рождение мафии: Чикаго
The Making of the Mob: Chicago
-- Производство: США
Жанр: криминал, история, драма, документальный, ...
Год выпуска: 2016 г.-Мировая премьера: 15 июня 2015, ...-Озвучка: Студия
Перевод: Многоголосый закадровый, профессиональный
Оригинальный аудиопоток: английский-Перевод: Янина Галицкая
Озвучка: Сергей Корчак, Андрей Корзаченко, Акмал Гурезов и Ольга Мотрич
Монтаж: Павел Дежин-Режиссер: Джон Илер / John Ealer-В ролях:Марк Фальво, Ричи Асеведо, Рики Монтано, Рич Графф, Йен Белл, Энтони ДиКарло, Гас Зукко, Ивэн Боймел ...-Описание:
«Рождение мафии: Чикаго» — это документальный игровой телесериал о преступной империи известного гангстера Аль Капоне.
Действие будет разворачиваться в 20-м столетии и начнется с нью-йорского периода преступной карьеры гангстера. Потом перенесется в Чикаго, где в будущем легендарная личность начнет проворачивать нечистые подпольные дела. С принятием Сухого закона чикагские шайки кинутся делить рынок нелегальных алкогольных напитков, и команда Капоне решит урвать самый больший куш… Жестокие расправы и безмерные вольности, а также рост влияния Капоне вызовут гнев президента Герберта Гувера, который не будет медлить в принятии ответных мер.-Сезон: 2
Серии: 5 из 8 серий
Продолжительность: ~ 00:43:00 мин серия-Качество видео: WEB-Rip
Контейнер: AVI
Видео кодек: XviD
Аудио кодек: МР3
Видео: MPEG-4 Visual at 1497 Кбит/сек: 720 x 400 (1.800) at 23.976 fps: 0.22 Бит/Пиксели
Аудио Rus: MPEG Audio at 192 Кбит/сек: 2 канала, 48,0 КГц |BaibaKo|
Аудио Eng: MPEG Audio at 192 Кбит/сек: 2 канала, 48,0 КГц |Original|
Cубтитры: отсутствуют
- -
  • Первое убийство Капоне
  • Смерть в семье
  • Залитые кровью улицы
  • Резня в День Святого Валентина
  • Судный день
  • Новая кровь
  • Город грехов
  • Последний герой
-
Общее
Полное имя : E:\_Сериалы\_Сериалы\Рождение мафии Чикаго\The Making of the Mob (Season 03 ) BaibaKo ави\The.Making.of.the.Mob.Chicago.s02e01.WEB-DLRip.XviD.Rus.Eng.BaibaKo.tv.avi
Формат : AVI
Формат/Информация : Audio Video Interleave
Размер файла : 586 Мбайт
Продолжительность : 43 м.
Общий поток : 1888 Кбит/сек
Видео
Идентификатор : 0
Формат : MPEG-4 Visual
Профиль формата : Advanced [email protected]
Параметр BVOP формата : 2
Параметр QPel формата : Нет
Параметр GMC формата : Без точки перехода
Параметр матрицы формата : Default (H.263)
Идентификатор кодека : XVID
Идентификатор кодека/Подсказка : XviD
Продолжительность : 43 м.
Битрейт : 1497 Кбит/сек
Ширина : 720 пикселей
Высота : 400 пикселей
Соотношение сторон : 16:9
Частота кадров : 23,976 кадра/сек
Цветовое пространство : YUV
Субдискретизация насыщенности : 4:2:0
Битовая глубина : 8 бит
Тип развёртки : Прогрессивная
Метод сжатия : С потерями
Бит/(Пиксели*Кадры) : 0.217
Размер потока : 465 Мбайт (79%)
Библиотека кодирования : XviD 67
Аудио #1
Идентификатор : 1
Формат : MPEG Audio
Версия формата : Version 1
Профиль формата : Layer 3
Режим : Joint stereo
Расширение режима : MS Stereo
Идентификатор кодека : 55
Идентификатор кодека/Подсказка : MP3
Продолжительность : 43 м.
Вид битрейта : Постоянный
Битрейт : 192 Кбит/сек
Каналы : 2 канала
Частота : 48,0 КГц
Метод сжатия : С потерями
Размер потока : 59,6 Мбайт (10%)
Выравнивание : Соединение по промежуткам
Продолжительность промежутка : 167 мс. (4,00 видеокадра)
Время предзагрузки промежутка : 216 мс.
Заголовок : The.Making.of.the.Mob.Chicago.s02e01.HD1080p.WEB-DL.Rus.Eng.BaibaKo.tv - [0] Russian_audio
Библиотека кодирования : LAME3.99r
Настройки программы : -m j -V 4 -q 2 -lowpass 18.6 -b 192
Аудио #2
Идентификатор : 2
Формат : MPEG Audio
Версия формата : Version 1
Профиль формата : Layer 3
Режим : Joint stereo
Расширение режима : MS Stereo
Идентификатор кодека : 55
Идентификатор кодека/Подсказка : MP3
Продолжительность : 43 м.
Вид битрейта : Постоянный
Битрейт : 192 Кбит/сек
Каналы : 2 канала
Частота : 48,0 КГц
Метод сжатия : С потерями
Размер потока : 59,6 Мбайт (10%)
Выравнивание : Соединение по промежуткам
Продолжительность промежутка : 167 мс. (4,00 видеокадра)
Время предзагрузки промежутка : 216 мс.
Заголовок : The.Making.of.the.Mob.Chicago.s02e01.HD1080p.WEB-DL.Rus.Eng.BaibaKo.tv - [1] English_audio
Библиотека кодирования : LAME3.99r
Настройки программы : -m j -V 4 -q 2 -lowpass 18.6 -b 192
-
-Скриншоты:
-
-
Раздача ведётся путём добавления новых серий; при каждом добавлении создаётся новый торрент.
Чтобы начать докачку новой серии, пользователям необходимо сделать следующее:
1. остановить скачивание,
2. удалить старый торрент у себя из клиента (старые серии удалять не надо),
3. скачать новый торрент и запустить его у себя в клиенте вместо старого, при этом указать клиенту путь в старую папку, куда и должно происходить скачивание новых серий.
Ваш клиент при этом должен произвести хеширование (проверку) старой папки (если не производит сам - помогите ему сделать это), и будет докачивать только те серии которых у вас ещё нет. Старые серии при этом не удаляются, а продолжают раздаваться!
Eсли вы уже удалили старые серии, то предотвратить повторную закачку старых серий можно, отжав галочку в соответствующих местах при запуске нового торрента. По возможности, желательно не удалять старые серии как можно дольше, чтобы релизёр не столько продолжал раздавать старые серии, а смог сконцентрироваться на новых.
Совет для тех, кто не хочет ждать перехеширования:
Создайте ещё одну папку рядом с папкой сериала (рядом, а не в ней!!!). Каждую новую серию после удачной загрузки копируйте в новую папку так чтобы ваша основная папка всегда была пуста. Когда ваш новый торрент предложит вам закачать все файлы, выберете только последнюю. Для сидирования же укажите адрес новой папки.
Как закачать отдельный файл из торрента или докачать ранее пропущенные файлы торрента!
-
1. Открыть торрент
2. Снять галки с тех файлов торрента, которые мы не хотим закачивать. Оставляем только на нужных нам файлах (файле).
3. Нажать О.К.
В клиенте utorrent
Инструкция
1) Открыть торрент

2) Снять галки с тех файлов торрента, которые мы не хотим закачивать:
* либо вручную, снимая с каждого файла галку( скрин №1)
* либо, нажав кнопку "Снять метки (Select None)", сняв сразу со всех файлов(скрин №2)
№1

№2

Оставляем только на нужных нам файлах (файле).

3)Нажать О.К
-Добавлена восьмая, заключительная, серия второго сезона-Приятного просмотра!!!-
Download / Скачать

Хотите скачать бесплатно? Зарегистрируйтесь на сайте (ссылка на регистрацию). Pirat.ca - самый быстрый торрент трекер в рунете!

Как скачивать  ·   Что такое торрент  ·   Рейтинг и ограничения

Показать сообщения:    
Ответить на тему

Текущее время: Сегодня 08:09

Часовой пояс: GMT + 4



Вы не можете начинать темы
Вы не можете отвечать на сообщения
Вы не можете редактировать свои сообщения
Вы не можете удалять свои сообщения
Вы не можете голосовать в опросах
Вы не можете прикреплять файлы к сообщениям
Вы не можете скачивать файлы

▼ Вниз