ML
     
  Уважаемый Гость!
Вы можете поддержать проект и зарегистрироваться у наших партнеров - онлайн-стратегия MyLands. При регистрации в игре Вы получите код, который сможете активировать после регистрации на pirat.ca и получить 1000 дублонов.

Ваш код:
0ea1bf889af42fca5f67d0a391efb3400850ad7c
 
     

Очень странные дела / Stranger Things / Сезон: 1 / Серии: 1-8 из 8 (Мэтт Даффер / Matt Duffer, ...) [2016 г., ужасы, триллер, WEB-DLRip] MVO (Jaskier) + Original (Eng)

Ответить на тему
 
Автор
Сообщение

Пост 19-Июл-2016 23:41

[Q] 

somik

Легенда

-Очень странные дела / Stranger Things-- Производство: США, Netflix, 21 Laps Entertainment
Жанр: ужасы, триллер
Год выпуска: 2016 г.
Продолжительность: 00:48:00
Мировая премьера: 15 июля 2016
Перевод: Профессиональный (многоголосый, закадровый) [Jaskier]
Оригинальный аудиопоток: английский
Режиссер: Мэтт Даффер / Matt Duffer, ...-В ролях: Вайнона Райдер, Дэвид Харбор, Кара Буоно, Милли Бобби Браун, Наталия Дайер, Чарли Хитон, Калеб МакЛафлин, Ной Шнапп и др.-Описание: Главное действие сериала разворачивается в 80-х годах на территории тихого провинциального города. Благоприятное течение местной жизни нарушает загадочное исчезновение подростка по имени Уилл. Выяснить обстоятельства дела, полны решимости родные мальчика и местный шериф. Также события затрагивают лучшего друга Уилла — Майка. Он начинает собственное расследование. Теперь Майк уверен, что близок к разгадке, однако для этого ему предстоит оказаться в эпицентре ожесточенной битвы потусторонних сил.-
Качество видео: WEB-DLRip
Контейнер: AVI
Видео кодек: XviD
Аудио кодек: MP3
Видео: 720x360 (2.00:1), 23.976 fps, XviD build 73 ~1401 kbps avg, 0.23 bit/pixel
Аудио: 48 kHz, MPEG Layer 3, 2 ch, ~128.00 kbps avg
Аудио #2: 48 kHz, MPEG Layer 3, 2 ch, ~128.00 kbps avg
Cубтитры: отсутствуют
Спилберг и Кинг в одном флаконе + 80-е
Тот факт, что сериал недавно был презентован и уже переведён, и уже в свободном доступе, и уже просмотрен мной за ночь (8 серий) говорит о его необычайном качестве.
Пожалуй, один из лучших и добротно снятых мистических сериалов за последние годы.
Сюжет «Странных дел» основывается на поисках пропавшего ребёнка Уилла, исчезнувшего при необычных обстоятельствах. История осложняется тем, что шериф, вызвавшийся найти пропажу, идёт по следам другого ребёнка, сбежавшей из засекреченной лаборатории девочки, наделённой сверх способностями.
Вроде ничего оригинального нет, но сама подача и отношение авторов сериала к деталям необычайно вовлекает. Меня приковало так, что любопытство было удовлетворено лишь к финальной серии. Более того, история развивается в 80-е, когда не было ни планшетов, ни интернета, ни афроамериканского президента, а США всё ещё находилось в холодных отношениях с… СССР. На этом фоне история развивается даже куда более органично, потому что эксперименты по поиску нового оружия, о которых будет идти речь в данном творении, кажутся менее надуманными.
В этой восьмисерийной картине пожалуй есть всё, что отличает хорошее кино от халтурного, хотя и без халтуры не обошлось. Но о ней по-позже.
Великолепные декорации 80-х, отлично подобранные костюмы героев, окружающая обстановка, мода — практически всё соответствует тому времени. При этом многое продуманно и качественно подано, в нужных пропорциях и на требуемых местах, что отлично дополняет атмосферу фильма, не даёт повода усомниться в действительности происходящего на экране. И хотя события происходят лишь в одном провинциальном городке, создаётся ощущение, что в нём воплощены все характерные для того периода черты, касающиеся американской жизни.
Большую роль, вернее сказать роли отводятся в сериале детям. Посвящённому человеку большинство эпизодов сразу напомнят Спилберга с его замечателььным «Инопланетянином». Для любителей творчества Стивена Кинга в «Странных делах» найдётся немало отсылок, причём добротных, я бы сказал даже достойных творчества самого Кинга.
Дети хорошо и талантливо играют свои роли, что редко можно увидеть в сериалах, типажи главных героев отлично переданы, правда, не все характеры хорошо раскрыты, что можно объяснить небольшим количеством серий, но в большинстве своём персонажам веришь и переживаешь. Актёрская игра Вайноны Райдер, матери пропавшего ребёнка, заслуживает особых похвал. Давненько я не видел, чтобы так отыгрывали помешательство.
Стоит упомянуть хорошо подобранный, на мой взгляд, и отлично стилизованный саундрек: этакий электронный космобит, напоминающий музыкальное оформление большинства боевиков 80-х, но при этом имеющий свою изюминку. В общей картине, выполненной на высоком уровне, чувствуется стиль и это тоже подкупает.
Но в чём можно найти халтуру? Скорее в малобюджетности «Странных дел». Это объясняет, почему после динамичного, но степенного начала, вдруг такой прыг-скок к финалу, теряющий в некоторых эпизодах логику происходящего. Также объясняет и тот факт, что к концовке во многих эпизодах топорная компьютерная графика может ударить по глазам. В некоторых местах глупо разыграно нападение самого главного страха сериала… Кстати, я не говорил что «Странные дела» — мистика, приближённая к ужастику?
Итог, не взирая на присутствующие недостатки, могу подвести такой. Не будь у сериала своего особого очарования и стиля, не будь у него отличной сюжетной канвы и замечательного актёрского состава, весьма талантливого между прочим, «Странным делам» не удалось бы завоевать ещё одного поклонника, коим я с превеликим удовольствием и являюсь.
Очень хочется 2-й сезон.
А любителям хорошей мистики — рекомендую!
Общее
Полное имя : D:\D\Очень странные дела\Stranger Things.S01. Jaskier.[pirat.ca]\Stranger.Things.S01E01.WEBRip.XviD.Rus.Eng.Jaskier.avi
Формат : AVI
Формат/Информация : Audio Video Interleave
Размер файла : 650 Мбайт
Продолжительность : 47 м.
Общий поток : 1912 Кбит/сек
Название фильма : Stranger.Things.S01E01.WEBRip.XviD.Rus.Eng.Jaskier
Программа кодирования : VirtualDubMod 1.5.10.3 | www.virtualdub-fr.org || (build 2550/release)
Видео
Идентификатор : 0
Формат : MPEG-4 Visual
Профиль формата : Advanced [email protected]
Параметр BVOP формата : 1
Параметр QPel формата : Нет
Параметр GMC формата : Без точки перехода
Параметр матрицы формата : Default (MPEG)
Идентификатор кодека : XVID
Идентификатор кодека/Подсказка : XviD
Продолжительность : 47 м.
Битрейт : 1642 Кбит/сек
Ширина : 720 пикселей
Высота : 360 пикселей
Соотношение сторон : 2,000
Частота кадров : 23,976 (23976/1000) кадра/сек
Цветовое пространство : YUV
Субдискретизация насыщенности : 4:2:0
Битовая глубина : 8 бит
Тип развёртки : Прогрессивная
Метод сжатия : С потерями
Бит/(Пиксели*Кадры) : 0.264
Размер потока : 558 Мбайт (86%)
Библиотека кодирования : XviD 73
Аудио #1
Идентификатор : 1
Формат : MPEG Audio
Версия формата : Version 1
Профиль формата : Layer 3
Режим : Joint stereo
Расширение режима : MS Stereo
Идентификатор кодека : 55
Идентификатор кодека/Подсказка : MP3
Продолжительность : 47 м.
Вид битрейта : Постоянный
Битрейт : 128 Кбит/сек
Каналы : 2 канала
Частота : 48,0 КГц
Метод сжатия : С потерями
Размер потока : 43,5 Мбайт (7%)
Выравнивание : Соединение по промежуткам
Продолжительность промежутка : 42 мс. (1,00 видеокадр)
Время предзагрузки промежутка : 504 мс.
Аудио #2
Идентификатор : 2
Формат : MPEG Audio
Версия формата : Version 1
Профиль формата : Layer 3
Режим : Joint stereo
Расширение режима : MS Stereo
Идентификатор кодека : 55
Идентификатор кодека/Подсказка : MP3
Продолжительность : 47 м.
Вид битрейта : Постоянный
Битрейт : 128 Кбит/сек
Каналы : 2 канала
Частота : 48,0 КГц
Метод сжатия : С потерями
Размер потока : 43,5 Мбайт (7%)
Выравнивание : Соединение по промежуткам
Продолжительность промежутка : 42 мс. (1,00 видеокадр)
Время предзагрузки промежутка : 504 мс.
Download / Скачать

Хотите скачать бесплатно? Зарегистрируйтесь на сайте (ссылка на регистрацию). Pirat.ca - самый быстрый торрент трекер в рунете!

Как скачивать  ·   Что такое торрент  ·   Рейтинг и ограничения

maxvel911

Морской Волк

Пост 24-Июл-2016 01:10 (спустя 4 дня)

[Q] 

Сериал офигителен, давно так не жаждал продолжения. Советую посмотреть.
[Профиль]  [ЛС] 
Показать сообщения:    
Ответить на тему

Текущее время: Сегодня 00:32

Часовой пояс: GMT + 4



Вы не можете начинать темы
Вы не можете отвечать на сообщения
Вы не можете редактировать свои сообщения
Вы не можете удалять свои сообщения
Вы не можете голосовать в опросах
Вы не можете прикреплять файлы к сообщениям
Вы не можете скачивать файлы

▼ Вниз