ML
     
  Уважаемый Гость!
Вы можете поддержать проект и зарегистрироваться у наших партнеров - онлайн-стратегия MyLands. При регистрации в игре Вы получите код, который сможете активировать после регистрации на pirat.ca и получить 1000 дублонов.

Ваш код:
e93cd9e43017f251127f220889864c05934e61c6
 
     

Дама под вуалью / La dama velata / Сезон: 1 / Серии: 1-12 из 12 (Кармине Элиа / Carmine Elia) [2015 г., драма, HDTVRip] MVO (ИГМАР)

Ответить на тему
 
Автор
Сообщение

Пост 21-Июл-2016 17:06

[Q] 

somik

Легенда

-Дама под вуалью / La dama velata-- Производство: Италия, Lux Vide S.p.a., Ghost SFX
Жанр: драма
Год выпуска: 2015 г.
Продолжительность: 00:50:00
Мировая премьера: 17 марта 2015
Перевод: Профессиональный (многоголосый, закадровый) [ИГМАР]
Режиссер: Кармине Элиа / Carmine Elia-В ролях: Мириам Леоне, Лино Гуанчале, Джеймс Олиас, Андреа Боска, Лукреция Ланте делла Ровере, Тереза Сапонанджело, Мар Регерас, Лучано Вирджилио, Паоло Маццареллиге, Франческо Сальви, Илария Спада, Аугусто Цукки, Джермано Беллавия-Описание: Конец XIX столетия, жена графа Гранди умирает, произведя на свет двойняшек: мальчика и девочку. Аделаиде — родственница графа Гранди и мать Корнелио — единственного потомка мужского пола в роду Гранди, заставляет старого графа поверить, что родилась только девочка — Клара. Возненавидев девочку, граф оставляет её на воспитание в семье фермеров Стайнери, которые вырастят её как родную, вместе с Маттео, которого тоже взяли на воспитание.
Повзрослев, Клара и Маттео решают пожениться, но неожиданно в их жизнь вмешивается старый граф, который забирает дочь в Тренто, чтобы впоследствии выдать её замуж за незнакомца, чтобы получить наследника рода. Клара замышляет побег, договаривается с Маттео, но непредвиденные обстоятельства мешают их планам осуществиться. В то же время Клара знакомится с молодым графом — Гуидо, светским фатом и волокитой с таинственным прошлым. Она ещё не знает, как их судьбы переплетутся…-
Качество видео: HDTVRip
Контейнер: AVI
Видео кодек: XviD
Аудио кодек: AC3
Видео: 720x400 (1.80:1), 25 fps, XviD MPEG-4 ~1599 kbps avg, 0.22 bit/pixel
Аудио: 48 kHz, AC3 Dolby Digital, 2/0 (L,R) ch, ~128 kbps
Cубтитры: отсутствуют
Итальянская романтика
«Дама под вуалью» — удивительно красивый фильм. Начав просмотр, не смогла оторваться до самого финала. Прекрасное оформление, декорации, изысканные наряды не оставят равнодушными женский взгляд. Актерский состав тоже безупречен. Посмотрев однажды, хочется записать этот минисериал в список любимых и смотреть зимними вечерами, укутавшись в плед.
Очень понравился актер, сыгравший Гуидо — Лино Гуанчале. Жаль, что о нем на сайте мало информации. Красив, умен, нахален и ревнив этот персонаж, но в душе раним и одинок.
Клара, главная героиня, тоже впечатлила своей обаятельностью, как внешней, так и внутренней.
Умница Урсула Корберо, сыгравшая крестьянку Аниту. Она удивила меня в этом образе, потому что я видела ее во многих испанских фильмах совсем в других ролях.
За талант актеров, костюмеров и всех работавших над фильмом поставлю высший балл.
Общее
Полное имя : F:\Dama pod vualju.2015.[pirat.ca]\La.dama.velata.01.Radici.spezzate.2015.HD-TV.avi
Формат : AVI
Формат/Информация : Audio Video Interleave
Размер файла : 630 Мбайт
Продолжительность : 50 м.
Общий поток : 1735 Кбит/сек
Название фильма : La.dama.velata.01.Radici.spezzate.2015.HD-TV
Программа кодирования : VirtualDubMod 1.5.10.2 (build 2542/release)
Видео
Идентификатор : 0
Формат : MPEG-4 Visual
Профиль формата : Advanced [email protected]
Параметр BVOP формата : 1
Параметр QPel формата : Нет
Параметр GMC формата : Без точки перехода
Параметр матрицы формата : Default (H.263)
Режим смешивания : Сжатый битовый поток
Идентификатор кодека : XVID
Идентификатор кодека/Подсказка : XviD
Продолжительность : 50 м.
Битрейт : 1599 Кбит/сек
Ширина : 720 пикселей
Высота : 400 пикселей
Соотношение сторон : 16:9
Частота кадров : 25,000 кадров/сек
Цветовое пространство : YUV
Субдискретизация насыщенности : 4:2:0
Битовая глубина : 8 бит
Тип развёртки : Прогрессивная
Метод сжатия : С потерями
Бит/(Пиксели*Кадры) : 0.222
Размер потока : 581 Мбайт (92%)
Библиотека кодирования : XviD 1.2.1 (UTC 2008-12-04)
Аудио
Идентификатор : 1
Формат : AC-3
Формат/Информация : Audio Coding 3
Расширение режима : CM (complete main)
Параметр Endianness формата : Big
Идентификатор кодека : 2000
Продолжительность : 50 м.
Вид битрейта : Постоянный
Битрейт : 128 Кбит/сек
Каналы : 2 канала
Расположение каналов : Front: L R
Частота : 48,0 КГц
Частота кадров : 31,250 кадров/сек (1536 spf)
Метод сжатия : С потерями
Размер потока : 46,5 Мбайт (7%)
Выравнивание : Разделение по промежуткам
Продолжительность промежутка : 64 мс. (1,60 видеокадра)
Время предзагрузки промежутка : 500 мс.
Download / Скачать

Хотите скачать бесплатно? Зарегистрируйтесь на сайте (ссылка на регистрацию). Pirat.ca - самый быстрый торрент трекер в рунете!

Как скачивать  ·   Что такое торрент  ·   Рейтинг и ограничения

Показать сообщения:    
Ответить на тему

Текущее время: Сегодня 04:29

Часовой пояс: GMT + 4



Вы не можете начинать темы
Вы не можете отвечать на сообщения
Вы не можете редактировать свои сообщения
Вы не можете удалять свои сообщения
Вы не можете голосовать в опросах
Вы не можете прикреплять файлы к сообщениям
Вы не можете скачивать файлы

▼ Вниз