ML
     
  Уважаемый Гость!
Вы можете поддержать проект и зарегистрироваться у наших партнеров - онлайн-стратегия MyLands. При регистрации в игре Вы получите код, который сможете активировать после регистрации на pirat.ca и получить 1000 дублонов.

Ваш код:
ac3a16fe2691f4944151f8db2408f23e2ca25f6b
 
     

Ад на колёсах / Hell on Wheels / Сезон 5 / Серии: 14 из 14 (Дэвид Фон Энкен / David Von Ancken, ...) [2015 г., Драма, Вестерн, WEB-DL, 720p] MVO (Lostfilm) + Original (Eng) + Sub (Eng) [Финал]

Ответить на тему
 
Автор
Сообщение

Пост 21-Июл-2016 23:09

[Q] 

vic0811

Лоцман

-Ад на колёсах / Hell on Wheels-- Производство: США, Канада, American Movie Classics, Entertainment One Television, Nomadic Pictures
Жанр: Вестерн
Год выпуска: 2015 г.
Продолжительность: 00:43:0
Перевод: Профессиональный (многоголосый, закадровый) LostFilm
Оригинальный аудиопоток: английский
Релиз: Перевод и озвучание LostFilm
Режиссер: Дэвид Фон Энкен / David Von Ancken, Адам Дэвидсон / Adam Davidson, Нил ЛаБут / Neil LaBute-В ролях: Энсон Маунт, Колм Мини, Кристофер Хейердал, Тим Гини, Байрон Манн, Рег Роджерс, МакКензи Портер, Фил Бёрк, Анжела Чжоу, Ци Ма, Робин МакЛиви, Джош Барклай Карас, Чела Хорсдэл, Дженнифер Феррин, Мэдди Диксон-Пурье, Мэтт Кларк, Грегг Генри, Бад Класки-Описание: Городок Шайенн окончательно погряз в грехе. Маленький филиал ада уже свел в могилу немало людей. Понятия морали и чести тут не действуют, законы трактуются лишь в пользу сильных и влиятельных граждан, а о какой-либо культуре не идет речи и вовсе. «В аду нет цивилизации» - гласит слоган четвертого сезона шоу. Это значит, что главному герою, Каллену Бохэннану, еще не раз предстоит пустить в ход своей револьвер. Здесь выживают лишь отчаянные борцы за собственную судьбу - остальных ждет петля да милосердная пуля.-
Качество видео: WEB-DL
Стандарт разрешения: 720p
Видео кодек: AVC
Аудио кодек: AC3
Видео: MPEG-4 AVC, ~ 4000 Кбит/с, 1280х720
Аудио#1: AC3, 48,0 КГц, 6 ch, 384 kbps - Eng
Аудио#2: AC3, 48,0 КГц, 2 ch, 384 kbps - Rus
Cубтитры: английские
Общее
Уникальный идентификатор : 207496202904331239011486270600922724332 (0x9C1A50A73FA008CCAC623474F462F7EC)
Полное имя : G:\torrent\serial\Hell.on.Wheels.s05.720p.LF\Hell.on.Wheels.s05e09.720p.WEBDL.mkv
Формат : Matroska
Версия формата : Version 4 / Version 2
Размер файла : 1,45 Гбайт
Продолжительность : 42 м.
Общий поток : 4852 Кбит/сек
Дата кодирования : UTC 2016-06-20 19:16:57
Программа кодирования : mkvmerge v8.3.0 ('Over the Horizon') 64bit
Библиотека кодирования : libebml v1.3.1 + libmatroska v1.4.2
Видео
Идентификатор : 1
Формат : AVC
Формат/Информация : Advanced Video Codec
Профиль формата : [email protected]
Параметр CABAC формата : Нет
Параметр ReFrames формата : 2 кадра
Идентификатор кодека : V_MPEG4/ISO/AVC
Продолжительность : 42 м.
Битрейт : 3987 Кбит/сек
Ширина : 1280 пикселей
Высота : 718 пикселей
Соотношение сторон : 16:9
Режим частоты кадров : Постоянный
Частота кадров : 23,976 кадра/сек
Цветовое пространство : YUV
Субдискретизация насыщенности : 4:2:0
Битовая глубина : 8 бит
Тип развёртки : Прогрессивная
Бит/(Пиксели*Кадры) : 0.181
Размер потока : 1,20 Гбайт (82%)
Язык : English
Default : Да
Forced : Нет
Цветовой диапазон : Limited
Основные цвета : BT.709
Характеристики трансфера : BT.709
Коэффициенты матрицы : BT.709
Аудио #1
Идентификатор : 3
Формат : AC-3
Формат/Информация : Audio Coding 3
Расширение режима : CM (complete main)
Параметр Endianness формата : Big
Идентификатор кодека : A_AC3
Продолжительность : 42 м.
Вид битрейта : Постоянный
Битрейт : 384 Кбит/сек
Каналы : 2 канала
Расположение каналов : Front: L R
Частота : 48,0 КГц
Частота кадров : 31,250 кадров/сек (1536 spf)
Метод сжатия : С потерями
Размер потока : 118 Мбайт (8%)
Язык : Russian
Default : Да
Forced : Нет
Аудио #2
Идентификатор : 4
Формат : AC-3
Формат/Информация : Audio Coding 3
Расширение режима : CM (complete main)
Параметр Endianness формата : Big
Идентификатор кодека : A_AC3
Продолжительность : 42 м.
Вид битрейта : Постоянный
Битрейт : 384 Кбит/сек
Каналы : 6 каналов
Расположение каналов : Front: L C R, Side: L R, LFE
Частота : 48,0 КГц
Частота кадров : 31,250 кадров/сек (1536 spf)
Метод сжатия : С потерями
Размер потока : 118 Мбайт (8%)
Язык : English
Default : Нет
Forced : Нет
Текст
Идентификатор : 2
Формат : UTF-8
Идентификатор кодека : S_TEXT/UTF8
Идентификатор кодека/Информация : UTF-8 Plain Text
Язык : English
Default : Нет
Forced : Нет
Download / Скачать

Хотите скачать бесплатно? Зарегистрируйтесь на сайте (ссылка на регистрацию). Pirat.ca - самый быстрый торрент трекер в рунете!

Как скачивать  ·   Что такое торрент  ·   Рейтинг и ограничения



Последний раз редактировалось: vic0811 (2016-07-26 15:28), всего редактировалось 6 раз(а)

pdb08

Легенда

69

Пост 26-Июл-2016 15:35 (спустя 4 дня)

[Q] 

vic0811, Откуда такой размер, только за 5-й сезон 20.4 ГБ ???? Отказать

_________________
[Профиль]  [ЛС] 
Показать сообщения:    
Ответить на тему

Текущее время: Сегодня 23:40

Часовой пояс: GMT + 4



Вы не можете начинать темы
Вы не можете отвечать на сообщения
Вы не можете редактировать свои сообщения
Вы не можете удалять свои сообщения
Вы не можете голосовать в опросах
Вы не можете прикреплять файлы к сообщениям
Вы не можете скачивать файлы

▼ Вниз