ML
     
  Уважаемый Гость!
Вы можете поддержать проект и зарегистрироваться у наших партнеров - онлайн-стратегия MyLands. При регистрации в игре Вы получите код, который сможете активировать после регистрации на pirat.ca и получить 1000 дублонов.

Ваш код:
e93cd9e43017f251127f220889864c05934e61c6
 
     

В простом виде / In Plain Sight / Сезон: 1 / Серии: 1-12 из 12 (Дэн Лернер / Dan Lerner, ...) [2008 г., Триллер, драма, криминал, детектив, WEB-DLRip-AVC] MVO (To4kaTV)

Ответить на тему
 
Автор
Сообщение

Пост 22-Июл-2016 22:12

[Q] 

somik

Легенда

-В простом виде / In Plain Sight-- Производство: США, Pirates' Cove Entertainment, Universal Cable Productions, Universal Media Studios (UMS), Encore
Жанр: Триллер, драма, криминал, детектив
Год выпуска: 2008 г.
Продолжительность: 00:42:00
Мировая премьера: 1 июня 2008
Перевод: Любительский (многоголосый, закадровый) [To4kaTV]
Режиссер: Дэн Лернер / Dan Lerner, ...-В ролях: Мэри МакКормак, Фред Уэллер, Николь Хильтц, Пол Бен-Виктор, Кристиан де ла Фуэнте, Лесли Энн Уоррен, Тодд Уильямс, Холли Мэйплс, Джошуа Малина, Артур Вулдридж-Описание: Защитить свидетелей, когда те дают показания против самых ужасных преступников — вот главная задача американских маршалов. Именно эти судебные чиновники обеспечивают безопасность и анонимность всем людям, попавшим в программу по защите свидетелей. Мэри Шэннон — красивая и сильная женщина-маршал. Непростую работу Мэри совмещает с постоянной заботой о своей проблемной семье, в которую входят асоциальная сестра и эксцентричная мать.-
Качество видео: WEB-DLRip-AVC
Контейнер: AVI
Видео кодек: XviD
Аудио кодек: MP3
Видео: 720x400 (1.80:1), 25 fps, XviD build 50 ~763 kbps avg, 0.11 bit/pixel
Аудио: 44.100 kHz, MPEG Layer 3, 2 ch, ~112.38 kbps avg
Cубтитры: отсутствуют
Сериал не похож на другие
Этот сериал не похож на другие про копов и т. п.
«В простом виде» есть всё, что нужно хорошему сериалу: детектив, юмор, решение проблем, притягательные характеры главных героев, захватывающие погони, любовь.
Их работа защищать свидетелей, Мэри и Маршалл помогают решать проблемы важным свидетелям и их семьям. Они те, кто приходит на помощь потерявшимся людям под новым именем в новом городе. Свидетелям запрещается работать по прежней специальности, т. е. они должны начинать с нуля. Не стоит объяснять, как это сложно для каждого человека.
И в этот период важно, чтоб свидетель в порыве не связался с родственниками, друзьями, знакомыми из прежней жизни.
Но каждый свидетель — это новая история. Будь то владельцы картинной галереи, врачи, заключенные или девушка, согласившаяся давать свидетельские показания с условием, что ей сделают грудь большего размера :).
Но самое главное в этом сериале — это Мэри и Маршалл.
Мэри. Мэри — это классика. Сильная, выросшая без отца, взявшая на себя ответственность заботиться о сестре и матери-алкоголичке. Она их ругает, не одобряет их поведение, но всегда приходит на помощь. Будь то чемодан наркотиков или разбушевавшийся очередной мамин бойфренд.
Она привыкла решать все сама и никого не пускать в свою личную жизнь. Ее родственники не знают, кем она работает. Им знать нельзя.
Ее напарник Маршалл — умный, начитанный, одаренный, сообразительный. Он охраняет и защищает Мэри в те редкие минуты, когда это нужно. Он помогает ей не «слететь с катушек» и принимать более взвешенные решения каждый день.
Им скучать не приходится. Каждый день кто-то из свидетелей либо попадет в плохую ситуацию, либо его найдут мертвым.
Сериал для отдыха думающих людей.
10 из 10
Общее
Полное имя : D:\!СЕРИАЛЫ\На виду (В простом виде). In.Plain.Sight.s01\Na Vidu.(In Plain Sight).s01.2008.To4ka.TV.[pirat.ca]\In.Plain.Sight.s01e01.WEB-DLRip.Rus.Eng.To4ka.TV_xvid.avi
Формат : AVI
Формат/Информация : Audio Video Interleave
Размер файла : 427 Мбайт
Продолжительность : 1 ч. 7 м.
Режим общего битрейта : Переменный
Общий поток : 889 Кбит/сек
Название фильма : In.Plain.Sight.s01e01.WEB-DLRip.Rus.Eng.To4ka.TV_xvid
Программа кодирования : MEncoder Sherpya-SVN-r32492-4.2.5
Видео
Идентификатор : 0
Формат : MPEG-4 Visual
Профиль формата : [email protected]
Параметр BVOP формата : Нет
Параметр QPel формата : Нет
Параметр GMC формата : Без точки перехода
Параметр матрицы формата : Default (H.263)
Идентификатор кодека : XVID
Идентификатор кодека/Подсказка : XviD
Продолжительность : 1 ч. 7 м.
Битрейт : 764 Кбит/сек
Ширина : 720 пикселей
Высота : 400 пикселей
Соотношение сторон : 16:9
Частота кадров : 25,000 кадров/сек
Цветовое пространство : YUV
Субдискретизация насыщенности : 4:2:0
Битовая глубина : 8 бит
Тип развёртки : Прогрессивная
Метод сжатия : С потерями
Бит/(Пиксели*Кадры) : 0.106
Размер потока : 367 Мбайт (86%)
Библиотека кодирования : XviD 1.2.1 (UTC 2008-12-04)
Аудио
Идентификатор : 1
Формат : MPEG Audio
Версия формата : Version 1
Профиль формата : Layer 3
Режим : Joint stereo
Идентификатор кодека : 55
Идентификатор кодека/Подсказка : MP3
Продолжительность : 1 ч. 7 м.
Вид битрейта : Переменный
Битрейт : 112 Кбит/сек
Каналы : 2 канала
Частота : 44,1 КГц
Метод сжатия : С потерями
Размер потока : 54,0 Мбайт (13%)
Выравнивание : Соединение по промежуткам
Продолжительность промежутка : 26 мс. (0,65 видеокадр)
Время предзагрузки промежутка : 148 мс.
Библиотека кодирования : LAME3.98.4
Download / Скачать

Хотите скачать бесплатно? Зарегистрируйтесь на сайте (ссылка на регистрацию). Pirat.ca - самый быстрый торрент трекер в рунете!

Как скачивать  ·   Что такое торрент  ·   Рейтинг и ограничения

Показать сообщения:    
Ответить на тему

Текущее время: Сегодня 04:26

Часовой пояс: GMT + 4



Вы не можете начинать темы
Вы не можете отвечать на сообщения
Вы не можете редактировать свои сообщения
Вы не можете удалять свои сообщения
Вы не можете голосовать в опросах
Вы не можете прикреплять файлы к сообщениям
Вы не можете скачивать файлы

▼ Вниз