ML
     
  Уважаемый Гость!
Вы можете поддержать проект и зарегистрироваться у наших партнеров - онлайн-стратегия MyLands. При регистрации в игре Вы получите код, который сможете активировать после регистрации на pirat.ca и получить 1000 дублонов.

Ваш код:
6f9ab67d502902cc72a06c406977ddb589b7f39d
 
     

Завучи / Vice Principals / Сезон 1 / Серии: 9 из 9 (Джоди Хилл / Jody Hill, ...) [2016г., комедия, ... HDTVRip 720p] MVO (Jaskier) + Original (Eng) [финал сезона]

Ответить на тему
 
Автор
Сообщение

Пост 23-Июл-2016 15:40

[Q] 

kugesan

Завучи | Vice Principals«We all need someone to look up to»- Страна: США
Год выпуска: 2016
Жанр: комедия, ...-Озвучка: Студия
Перевод: Профессиональный (одноголосый закадровый)
Оригинальный аудиопоток: английский-Премьера (мир): 17 июля 2016, ...
Премьера (РФ): 18 июля 2016-Режиссер: Джоди Хилл / Jody Hill, Дэнни МакБрайд / Danny McBride, Дэвид Гордон Грин / David Gordon Green
В главных ролях: Морин Себастьян, Джульет Райлэнс, Энтони Старр, Джастин Чэтвин, Меган Кетч, Эллиот Найт, Стефани Леонидас, Гэбриел Бейтман, Вирджиния Мэдсен, Дилан Брюс, ...-Описание фильма:
Черная комедия про двух истеричных завучей средней школы, которые по иронии судьбы отвечают за дисциплину и учебный план. После того, как директор уходит на пенсию, завучи затевают эпическую борьбу за трон.-Сезон: 1
Серии: 9 из 9 серий
Продолжительность: ~ 00:30:00 мин серия-Качество видео: HDTVRip 720p
Контейнер: MKV
Видео кодек: AVC ([email protected])
Аудио кодек: AC-3
Видео: AVC at 2519 Кбит/сек: 1280 x 716 (1.788) at 23.976 fps: 0.115 Бит/Пиксели
Аудио Rus: AC-3 at 384 Кбит/сек: 6 каналов, 48,0 КГц |Jaskier|
Аудио Eng: AC-3 at 384 Кбит/сек: 6 каналов, 48,0 КГц |Original|
Cубтитры: отсутствуют
- -
Общее
Уникальный идентификатор : 188400594596390023543612700298572406677 (0x8DBCA2798F4C891290B0BC3BD5AB1F95)
Полное имя : E:\_Сериалы\_Сериалы\Завучи\Vice Principals. Season 1 (HDTV l 720p l Jaskier)\Vice.Principals.S01E01.720p.HDTV.Jaskier.Rus.Eng.mkv
Формат : Matroska
Версия формата : Version 4 / Version 2
Размер файла : 713 Мбайт
Продолжительность : 30 м.
Общий поток : 3289 Кбит/сек
Дата кодирования : UTC 2016-07-19 19:27:48
Программа кодирования : mkvmerge v7.8.0 ('River Man') 64bit built on Mar 27 2015 16:31:37
Библиотека кодирования : libebml v1.3.1 + libmatroska v1.4.2
Видео
Идентификатор : 1
Формат : AVC
Формат/Информация : Advanced Video Codec
Профиль формата : [email protected]
Параметр CABAC формата : Да
Параметр ReFrames формата : 5 кадров
Идентификатор кодека : V_MPEG4/ISO/AVC
Продолжительность : 30 м.
Битрейт : 2519 Кбит/сек
Ширина : 1280 пикселей
Высота : 716 пикселей
Соотношение сторон : 16:9
Режим частоты кадров : Постоянный
Частота кадров : 23,976 (24000/1001) кадра/сек
Цветовое пространство : YUV
Субдискретизация насыщенности : 4:2:0
Битовая глубина : 8 бит
Тип развёртки : Прогрессивная
Бит/(Пиксели*Кадры) : 0.115
Размер потока : 546 Мбайт (77%)
Библиотека кодирования : x264 core 148 r2705 3f5ed56
Настройки программы : cabac=1 / ref=5 / deblock=1:0:0 / analyse=0x3:0x113 / me=umh / subme=8 / psy=1 / psy_rd=1.00:0.00 / mixed_ref=1 / me_range=16 / chroma_me=1 / trellis=1 /
8x8dct=1 / cqm=0 / deadzone=21,11 / fast_pskip=1 / chroma_qp_offset=-2 / threads=22 / lookahead_threads=3 / sliced_threads=0 / nr=0 / decimate=1 / interlaced=0 / bluray_compat=0 /
constrained_intra=0 / bframes=3 / b_pyramid=2 / b_adapt=2 / b_bias=0 / direct=3 / weightb=1 / open_gop=0 / weightp=2 / keyint=250 / keyint_min=23 / scenecut=40 / intra_refresh=0 /
rc_lookahead=50 / rc=crf / mbtree=1 / crf=18.0 / qcomp=0.60 / qpmin=0 / qpmax=69 / qpstep=4 / ip_ratio=1.40 / aq=1:1.00
Default : Да
Forced : Нет
Цветовой диапазон : Limited
Коэффициенты матрицы : BT.709
Аудио #1
Идентификатор : 2
Формат : AC-3
Формат/Информация : Audio Coding 3
Расширение режима : CM (complete main)
Параметр Endianness формата : Big
Идентификатор кодека : A_AC3
Продолжительность : 30 м.
Вид битрейта : Постоянный
Битрейт : 384 Кбит/сек
Каналы : 6 каналов
Расположение каналов : Front: L C R, Side: L R, LFE
Частота : 48,0 КГц
Частота кадров : 31,250 кадров/сек (1536 spf)
Метод сжатия : С потерями
Размер потока : 83,3 Мбайт (12%)
Заголовок : RUS (Jaskier)
Язык : Russian
Default : Да
Forced : Нет
Аудио #2
Идентификатор : 3
Формат : AC-3
Формат/Информация : Audio Coding 3
Расширение режима : CM (complete main)
Параметр Endianness формата : Big
Идентификатор кодека : A_AC3
Продолжительность : 30 м.
Вид битрейта : Постоянный
Битрейт : 384 Кбит/сек
Каналы : 6 каналов
Расположение каналов : Front: L C R, Side: L R, LFE
Частота : 48,0 КГц
Частота кадров : 31,250 кадров/сек (1536 spf)
Метод сжатия : С потерями
Размер потока : 83,3 Мбайт (12%)
Заголовок : ENG
Язык : English
Default : Нет
Forced : Нет
-
-Скриншоты:
-
-
Раздача ведётся путём добавления новых серий; при каждом добавлении создаётся новый торрент.
Чтобы начать докачку новой серии, пользователям необходимо сделать следующее:
1. остановить скачивание,
2. удалить старый торрент у себя из клиента (старые серии удалять не надо),
3. скачать новый торрент и запустить его у себя в клиенте вместо старого, при этом указать клиенту путь в старую папку, куда и должно происходить скачивание новых серий.
Ваш клиент при этом должен произвести хеширование (проверку) старой папки (если не производит сам - помогите ему сделать это), и будет докачивать только те серии которых у вас ещё нет. Старые серии при этом не удаляются, а продолжают раздаваться!
Eсли вы уже удалили старые серии, то предотвратить повторную закачку старых серий можно, отжав галочку в соответствующих местах при запуске нового торрента. По возможности, желательно не удалять старые серии как можно дольше, чтобы релизёр не столько продолжал раздавать старые серии, а смог сконцентрироваться на новых.
Совет для тех, кто не хочет ждать перехеширования:
Создайте ещё одну папку рядом с папкой сериала (рядом, а не в ней!!!). Каждую новую серию после удачной загрузки копируйте в новую папку так чтобы ваша основная папка всегда была пуста. Когда ваш новый торрент предложит вам закачать все файлы, выберете только последнюю. Для сидирования же укажите адрес новой папки.
Как закачать отдельный файл из торрента или докачать ранее пропущенные файлы торрента!
-
1. Открыть торрент
2. Снять галки с тех файлов торрента, которые мы не хотим закачивать. Оставляем только на нужных нам файлах (файле).
3. Нажать О.К.
В клиенте utorrent
Инструкция
1) Открыть торрент

2) Снять галки с тех файлов торрента, которые мы не хотим закачивать:
* либо вручную, снимая с каждого файла галку( скрин №1)
* либо, нажав кнопку "Снять метки (Select None)", сняв сразу со всех файлов(скрин №2)
№1

№2

Оставляем только на нужных нам файлах (файле).

3)Нажать О.К
-Добавлена девятая, заключительная, серия первого сезона-Приятного просмотра!!!-
Download / Скачать

Хотите скачать бесплатно? Зарегистрируйтесь на сайте (ссылка на регистрацию). Pirat.ca - самый быстрый торрент трекер в рунете!

Как скачивать  ·   Что такое торрент  ·   Рейтинг и ограничения



Последний раз редактировалось: kugesan (2016-09-21 01:06), всего редактировалось 8 раз(а)

Tosha

110

Пост 03-Авг-2016 01:11 (спустя 10 дней)

[Q] 

скачал 3-ю серию мат на мате смотреть не возможно из за этого

_________________
Выполняем ремонт любой сложности!
Бытовая техника, мясорубки, кофе-машины, парогенераторы, моющие системы, оверлоки и пуговичные машины, а так же бытовые и промышленные швейные машины.
РЕМОНТ КОМПЬЮТЕРОВ И НОУТБУКОВ

ООО "Гарант" http://GARANTREM.RU
[Профиль]  [ЛС] 

kugesan ®

56639

Пост 03-Авг-2016 15:51 (спустя 14 часов)

[Q] 

Tosha, попробуй эту озвучку - Завучи / Vice Principals / Сезон 1 / Серии: 3 из 9 (Джоди Хилл / Jody Hill, ...) [2016г., комедия, ... HDTVRip 720p] MVO (Кураж-Бамбей) + Original (Eng) [обновляемая]

_________________

В мире две бесконечности: вселенная и человеческая глупость - Альберт Эйнштен
«Можно вытащить человека из грязи, но нельзя вытащить грязь из человека»!
[Профиль]  [ЛС] 

Pirat

Шкипер

Пост 11-Авг-2016 15:07 (спустя 7 дней)

[Q] 

kugesan, спасибо за релизы!
Просьба прояснить: какая озвучка куражбамбеевская, а где нет? (две раздачи, и там и там куражбамбей, но разные? это как?)
[Профиль]  [ЛС] 

kugesan ®

56639

Пост 11-Авг-2016 18:29 (спустя 3 часа)

[Q] 

Здесь Jaskier

_________________

В мире две бесконечности: вселенная и человеческая глупость - Альберт Эйнштен
«Можно вытащить человека из грязи, но нельзя вытащить грязь из человека»!
[Профиль]  [ЛС] 
Показать сообщения:    
Ответить на тему

Текущее время: Сегодня 16:30

Часовой пояс: GMT + 4



Вы не можете начинать темы
Вы не можете отвечать на сообщения
Вы не можете редактировать свои сообщения
Вы не можете удалять свои сообщения
Вы не можете голосовать в опросах
Вы не можете прикреплять файлы к сообщениям
Вы не можете скачивать файлы

▼ Вниз