ML
     
  Уважаемый Гость!
Вы можете поддержать проект и зарегистрироваться у наших партнеров - онлайн-стратегия MyLands. При регистрации в игре Вы получите код, который сможете активировать после регистрации на pirat.ca и получить 1000 дублонов.

Ваш код:
a978488e62322cd72e113ab723b8a7fdc10eb9b9
 
     

Жара в Акапулько / Acapulco H.E.A.T. / Сезон: 1 / Серии: 1-22 из 22 (Сидни Хайерс / Sidney Hayers) [1993 г., боевик, приключения, SATRip] MVO (Видеофильм)

Ответить на тему
 
Автор
Сообщение

Пост 23-Июл-2016 23:48

[Q] 

somik

Легенда

-Жара в Акапулько / Acapulco H.E.A.T.-- Производство: США, Мексика, Франция, Balenciaga Productions, Centre National de la Cinématographie (CNC), Les Films du Triangle, M6 Films
Жанр: боевик, приключения
Год выпуска: 1993 г.
Продолжительность: 00:42:00
Мировая премьера: 28 сентября 1993
Перевод: Профессиональный (многоголосый, закадровый) [Видеофильм]
Режиссер: Сидни Хайерс / Sidney Hayers-В ролях: Кэтрин Оксенберг, Брендан Келли, Элисон Эрмитаж, Спенсер Рочфорт, Холли Флория, Майкл Уорт, Рэнди Васкес, Грэхэм Хейвуд, Джон Вернон, Фабио, ...-Описание: Акапулько — ктo жe нe знaeт этoт курортный город в Мексике. Солнце, морe, пляж, симпaтичныe девушки в купальниках… И кто бы мог подумaть, что пoпулярный салон пляжной моды «Acаpulcо HEAT» в местечке Пуэрто Валларте — на самом деле прикрытие для независимой интернациональной команды профессионалов-спецназовцев, выполняющих самые сложные и опасные задания (H.E.A.T. — Hеmisphеrе Emеrgеnсy Actiоn Tеаm, региональный отряд быстрого реагирования). Команда работает по заданиям ЦРУ и спецслужб других стран, а иногда и по частным заказам, и борется с террористами, контрабандистами, работорговцами, наркобаронами и прочими особо опасными преступниками.-
Качество видео: SATRip
Контейнер: AVI
Видео кодек: XviD
Аудио кодек: MP3
Видео: 640x480 (1.33:1), 25 fps, XviD build 46 ~767 kbps avg, 0.10 bit/pixel
Аудио: 44.100 kHz, MPEG Layer 3, 2 ch, ~123.62 kbps avg
Cубтитры: отсутствуют
Мексиканские каникулы
Ох, как я любила этот сериал в детстве! Более того, моя первая любовь не угасла…
Сейчас экраны пестрят подобными сериалами про супер агентов, мчащихся на дорогих автомобилях, разговаривающих по крутым телефонам и использующие мощные радары и спутниковые антенны. А эти агенты спецслужб не сильно-то на агентов и похожи, особенно когда прыгают в купальниках по скалам с пистолетом в руках. Но как это красиво, напряженно и увлекательно!
Отмечу обилие моря, пляжей, красивых девушек в купальниках, но в то же время интересные криминальные сюжеты в каждой серии, которые не дают зрителю скучать. И именно такое сочетание придает сериалу изюминку и будоражит сердца положительными эмоциями.
10 из 10
Общее
Полное имя : E:\!СЕРИАЛЫ\Acapulco H.E.A.T.S01.1993.[pirat.ca]\Acapulco_H.E.A.T._01x01_Checkmate_(part 1)_Rus_xvid.avi
Формат : AVI
Формат/Информация : Audio Video Interleave
Размер файла : 292 Мбайт
Продолжительность : 45 м.
Режим общего битрейта : Переменный
Общий поток : 904 Кбит/сек
Название фильма : Acapulco_H.E.A.T._01x01_Checkmate_(part 1)_Rus_Ger_xvid
Программа кодирования : MEncoder Sherpya-SVN-r26446-4.2.3
Видео
Идентификатор : 0
Формат : MPEG-4 Visual
Профиль формата : [email protected]
Параметр BVOP формата : Нет
Параметр QPel формата : Нет
Параметр GMC формата : Без точки перехода
Параметр матрицы формата : Default (H.263)
Идентификатор кодека : XVID
Идентификатор кодека/Подсказка : XviD
Продолжительность : 45 м.
Битрейт : 768 Кбит/сек
Ширина : 640 пикселей
Высота : 480 пикселей
Соотношение сторон : 4:3
Частота кадров : 25,000 кадров/сек
Цветовое пространство : YUV
Субдискретизация насыщенности : 4:2:0
Битовая глубина : 8 бит
Тип развёртки : Прогрессивная
Метод сжатия : С потерями
Бит/(Пиксели*Кадры) : 0.100
Размер потока : 248 Мбайт (85%)
Библиотека кодирования : XviD 1.1.2 (UTC 2006-11-01)
Аудио
Идентификатор : 1
Формат : MPEG Audio
Версия формата : Version 1
Профиль формата : Layer 3
Режим : Joint stereo
Расширение режима : MS Stereo
Идентификатор кодека : 55
Идентификатор кодека/Подсказка : MP3
Продолжительность : 45 м.
Вид битрейта : Переменный
Битрейт : 124 Кбит/сек
Каналы : 2 канала
Частота : 44,1 КГц
Метод сжатия : С потерями
Размер потока : 39,9 Мбайт (14%)
Выравнивание : Соединение по промежуткам
Продолжительность промежутка : 26 мс. (0,65 видеокадр)
Время предзагрузки промежутка : 425 мс.
Download / Скачать

Хотите скачать бесплатно? Зарегистрируйтесь на сайте (ссылка на регистрацию). Pirat.ca - самый быстрый торрент трекер в рунете!

Как скачивать  ·   Что такое торрент  ·   Рейтинг и ограничения

Показать сообщения:    
Ответить на тему

Текущее время: Сегодня 22:10

Часовой пояс: GMT + 4



Вы не можете начинать темы
Вы не можете отвечать на сообщения
Вы не можете редактировать свои сообщения
Вы не можете удалять свои сообщения
Вы не можете голосовать в опросах
Вы не можете прикреплять файлы к сообщениям
Вы не можете скачивать файлы

▼ Вниз