ML
     
  Уважаемый Гость!
Вы можете поддержать проект и зарегистрироваться у наших партнеров - онлайн-стратегия MyLands. При регистрации в игре Вы получите код, который сможете активировать после регистрации на pirat.ca и получить 1000 дублонов.

Ваш код:
0fcd44bd35319f69313aa6e53b31c51cbff1c942
 
     

Чарли Джейд / Charlie Jade / Сезон: 1 / Серии: 1-20 из 20 (Эрик Канюэль / Eric Canuel, ...) [2005 г., фантастика, фэнтези, драма, детектив, DVDRip] MVO (НТВ)

Ответить на тему
 
Автор
Сообщение

Пост 24-Июл-2016 00:24

[Q] 

somik

Легенда

-Чарли Джейд / Charlie Jade-- Производство: ЮАР, Канада, 4142276, CinéGroupe, Jonsworth Productions, The Imaginarium, ZenHQ, ZenHQ Films
Жанр: фантастика, фэнтези, драма, детектив
Год выпуска: 2005 г.
Продолжительность: 00:44:00
Мировая премьера: 16 апреля 2005
Перевод: Профессиональный (многоголосый, закадровый) [НТВ]
Режиссер: Эрик Канюэль / Eric Canuel, ...-В ролях: Джеффри Пирс, Майкл Филипо́вич, Патрисия МакКензи, Мишель Бургерс, Тайрон Бенскин, Дэнни Кеог, Мари-Жули Ривест, Танита Феникс, Дин Слейтер, Лиза-Мари Шнайдер, Грэм Кларк и др.-Описание: Существует три параллельных вселенных — Альфа, Бета и Гамма. Наш мир — это Бета, Гамма — рай на земле, а Альфа — продвинутый футуристический мир. Все эти три такие разные вселенные объединяет одно — везде существует могущественная и таинственная корпорация Vexcor.-
Качество видео: DVDRip
Контейнер: AVI
Видео кодек: XviD
Аудио кодек: MP3
Видео: 608x336 (1.81:1), 25 fps, XviD build 50 ~755 kbps avg, 0.15 bit/pixel
Аудио: 44.100 kHz, MPEG Layer 3, 2 ch, ~116.39 kbps avg
Cубтитры: отсутствуют
Общее
Полное имя : E:\!СЕРИАЛЫ\Charlie Jade.S01.[pirat.ca]\Charlie_Jade_s01e01_xvid.avi
Формат : AVI
Формат/Информация : Audio Video Interleave
Размер файла : 283 Мбайт
Продолжительность : 44 м.
Режим общего битрейта : Переменный
Общий поток : 885 Кбит/сек
Программа кодирования : MEncoder Sherpya-SVN-r32492-4.2.5
Библиотека кодирования : MPlayer
Видео
Идентификатор : 0
Формат : MPEG-4 Visual
Профиль формата : [email protected]
Параметр BVOP формата : Нет
Параметр QPel формата : Нет
Параметр GMC формата : Без точки перехода
Параметр матрицы формата : Default (H.263)
Идентификатор кодека : XVID
Идентификатор кодека/Подсказка : XviD
Продолжительность : 44 м.
Битрейт : 756 Кбит/сек
Ширина : 608 пикселей
Высота : 336 пикселей
Соотношение сторон : 16:9
Частота кадров : 25,000 кадров/сек
Цветовое пространство : YUV
Субдискретизация насыщенности : 4:2:0
Битовая глубина : 8 бит
Тип развёртки : Прогрессивная
Метод сжатия : С потерями
Бит/(Пиксели*Кадры) : 0.148
Размер потока : 242 Мбайт (85%)
Библиотека кодирования : XviD 1.2.1 (UTC 2008-12-04)
Аудио
Идентификатор : 1
Формат : MPEG Audio
Версия формата : Version 1
Профиль формата : Layer 3
Режим : Joint stereo
Расширение режима : MS Stereo
Идентификатор кодека : 55
Идентификатор кодека/Подсказка : MP3
Продолжительность : 44 м.
Вид битрейта : Переменный
Битрейт : 116 Кбит/сек
Каналы : 2 канала
Частота : 44,1 КГц
Метод сжатия : С потерями
Размер потока : 37,2 Мбайт (13%)
Выравнивание : Соединение по промежуткам
Продолжительность промежутка : 26 мс. (0,65 видеокадр)
Время предзагрузки промежутка : 394 мс.
Download / Скачать

Хотите скачать бесплатно? Зарегистрируйтесь на сайте (ссылка на регистрацию). Pirat.ca - самый быстрый торрент трекер в рунете!

Как скачивать  ·   Что такое торрент  ·   Рейтинг и ограничения

Показать сообщения:    
Ответить на тему

Текущее время: Сегодня 02:08

Часовой пояс: GMT + 4



Вы не можете начинать темы
Вы не можете отвечать на сообщения
Вы не можете редактировать свои сообщения
Вы не можете удалять свои сообщения
Вы не можете голосовать в опросах
Вы не можете прикреплять файлы к сообщениям
Вы не можете скачивать файлы

▼ Вниз