ML
     
  Уважаемый Гость!
Вы можете поддержать проект и зарегистрироваться у наших партнеров - онлайн-стратегия MyLands. При регистрации в игре Вы получите код, который сможете активировать после регистрации на pirat.ca и получить 1000 дублонов.

Ваш код:
cc3be08b7507661c03e0a2f582d0da3a659ea55a
 
     

Под прикрытием / Dаrk Bluе / Сезон: 1-2 / Серии: 1-20 из 20 (Дэнни Кэннон / Danny Cannon) [2009 г., боевик, триллер, драма, криминал, WEB-DLRip] MVO (© «Krаvес» по заказу ТНТ)

Ответить на тему
 
Автор
Сообщение

Пост 24-Июл-2016 18:44

[Q] 

somik

Легенда

-Под прикрытием / Dаrk Bluе-- Производство: США, TNT Originals, Turner Network Television (TNT), Warner Horizon Television
Жанр: боевик, триллер, драма, криминал
Год выпуска: 2009 г.
Продолжительность: 00:43:00
Мировая премьера: 15 июля 2009
Перевод: Профессиональный (многоголосый, закадровый) [© «Krаvес» по заказу ТНТ]
Режиссер: Дэнни Кэннон / Danny Cannon-В ролях: Дилан МакДермотт, Омари Хардвик, Логан Маршалл-Грин, Никки Эйкокс Мета, Голдинг Тайриз Аллен, Ной Бин, Уилмер Калдерон, Ницци Ферес, Эндрю Дж. Уэст-Описание: Сериал рассказывает про группу полицейских под таким прикрытием, что про них почти никто ничего не знает. Каждый день они ставят свои жизни под угрозу, чтобы поймать самых жестоких преступников.-
Качество видео: WEB-DLRip
Контейнер: AVI
Видео кодек: XviD
Аудио кодек: MP3
Видео: 720x400 (1.80:1), 25 fps, XviD build 46 ~761 kbps avg, 0.11 bit/pixel
Аудио: 44.100 kHz, MPEG Layer 3, 2 ch, ~120.88 kbps avg
Cубтитры: отсутствуют
Не перейти черту
Этот сериал именно такой, каким должен быть сериал о работе копов под прикрытием: постоянно держащий в напряжении, с резкой сменой событий.
В начале каждой серии нас сразу же бросают в самую гущу расследования очередного дела.
В центре событий команда из четырех полицейских:
Картер Шоу (Дилан МакДермотт) — для него работа это все, не щадит ни себя, ни подчиненных;
Тай Кертис (Омари Хардвик) — все время и с разным успехом пытается совместить роль хорошего семьянина и хорошего копа;
Дин Бендис (Логан Маршалл-Грин) — этакий плохой парень, часто бывает на грани между той стороной и этой;
Джейми Аллен (Никки Эйкокс) — бывшая уголовница, отчаянно пытается измениться, но избавиться от старых привычек не так уж и легко.
Любите фильмы о полицейских расследованиях, тогда полный вперед:
9 из 10
Общее
Полное имя : E:\!СЕРИАЛЫ\Dark Blue.S01-2.2009-2010.[pirat.ca]\Dark_Blue_s01e01_[pirat.ca]_xvid.avi
Формат : AVI
Формат/Информация : Audio Video Interleave
Размер файла : 293 Мбайт
Продолжительность : 45 м.
Режим общего битрейта : Переменный
Общий поток : 895 Кбит/сек
Программа кодирования : MEncoder Sherpya-SVN-r26446-4.2.3
Библиотека кодирования : MPlayer
Видео
Идентификатор : 0
Формат : MPEG-4 Visual
Профиль формата : [email protected]
Параметр BVOP формата : Нет
Параметр QPel формата : Нет
Параметр GMC формата : Без точки перехода
Параметр матрицы формата : Default (H.263)
Идентификатор кодека : XVID
Идентификатор кодека/Подсказка : XviD
Продолжительность : 45 м.
Битрейт : 762 Кбит/сек
Ширина : 720 пикселей
Высота : 400 пикселей
Соотношение сторон : 16:9
Частота кадров : 25,000 кадров/сек
Цветовое пространство : YUV
Субдискретизация насыщенности : 4:2:0
Битовая глубина : 8 бит
Тип развёртки : Прогрессивная
Метод сжатия : С потерями
Бит/(Пиксели*Кадры) : 0.106
Размер потока : 249 Мбайт (85%)
Библиотека кодирования : XviD 1.1.2 (UTC 2006-11-01)
Аудио
Идентификатор : 1
Формат : MPEG Audio
Версия формата : Version 1
Профиль формата : Layer 3
Режим : Joint stereo
Идентификатор кодека : 55
Идентификатор кодека/Подсказка : MP3
Продолжительность : 45 м.
Вид битрейта : Переменный
Битрейт : 121 Кбит/сек
Каналы : 2 канала
Частота : 44,1 КГц
Метод сжатия : С потерями
Размер потока : 39,5 Мбайт (14%)
Выравнивание : Соединение по промежуткам
Продолжительность промежутка : 26 мс. (0,65 видеокадр)
Время предзагрузки промежутка : 158 мс.
Библиотека кодирования : LAME3.97
Download / Скачать

Хотите скачать бесплатно? Зарегистрируйтесь на сайте (ссылка на регистрацию). Pirat.ca - самый быстрый торрент трекер в рунете!

Как скачивать  ·   Что такое торрент  ·   Рейтинг и ограничения

Показать сообщения:    
Ответить на тему

Текущее время: Сегодня 05:08

Часовой пояс: GMT + 4



Вы не можете начинать темы
Вы не можете отвечать на сообщения
Вы не можете редактировать свои сообщения
Вы не можете удалять свои сообщения
Вы не можете голосовать в опросах
Вы не можете прикреплять файлы к сообщениям
Вы не можете скачивать файлы

▼ Вниз