ML
     
  Уважаемый Гость!
Вы можете поддержать проект и зарегистрироваться у наших партнеров - онлайн-стратегия MyLands. При регистрации в игре Вы получите код, который сможете активировать после регистрации на pirat.ca и получить 1000 дублонов.

Ваш код:
8b752b428cf60a012c159dcae592cd1392170115
 
     

Портал юрского периода: Новый мир / Primeval: New World / Сезон: 1 / Серии: 1-13 из 13 (Энди Микита / Andy Mikita, ...) [2012 г., фантастика, боевик, драма, приключения, BDRip] MVO (ТВ3)

Ответить на тему
 
Автор
Сообщение

Пост 24-Июл-2016 22:00

[Q] 

somik

Легенда

-Портал юрского периода: Новый мир / Primeval: New World-- Производство: Канада, Великобритания, Bell Broadcast and New Media Fund, Impossiblepictures Ltd., Omni Film Productions, ...
Жанр: фантастика, боевик, драма, приключения
Год выпуска: 2012 г.
Продолжительность: 00:43:3
Мировая премьера: 29 октября 2012
Российская премьера: 18 мая 2013
Перевод: Профессиональный (многоголосый, закадровый) [ТВ3]
Режиссер: Энди Микита / Andy Mikita, ...-В ролях: Найолл Мэттер, Сара Каннинг, Дэнни Рахим, Кристал Лоу, Миранда Фригон, Джофф Густафссон, Адриан Холмс, Эндрю Ли Поттс, Клинт Карлтон, Лани Гелера-Описание: На территории Северной Америки начинают появляться динозавры и другие доисторические животные. Виной тому — аномалии, порталы в пространстве и времени. Изучением этих аномалий и существ занимаются группа гражданских под предводительством Эвана Кросса.-
Качество видео: BDRip
Контейнер: AVI
Видео кодек: XviD
Аудио кодек: AC3
Видео: 720x400 (1.80:1), 23.976 fps, XviD build 73 ~1676 kbps avg, 0.24 bit/pixel
Аудио: 48 kHz, AC3 Dolby Digital, 2/0 (L,R) ch, ~192 kbps
Cубтитры: отсутствуют
Общее
Полное имя : F:\!СЕРИАЛЫ\Portal YUrskogo Perioda.[pirat.ca]\Portal YUrskogo Perioda.S01.2012.BDRip.[pirat.ca]\01.Серия.avi
Формат : AVI
Формат/Информация : Audio Video Interleave
Размер файла : 599 Мбайт
Продолжительность : 44 м.
Общий поток : 1878 Кбит/сек
Название фильма : 01.Серия
Программа кодирования : VirtualDubMod 1.5.10.3 | www.virtualdub-fr.org || (build 2550/release)
Видео
Идентификатор : 0
Формат : MPEG-4 Visual
Профиль формата : Advanced [email protected]
Параметр BVOP формата : 2
Параметр QPel формата : Нет
Параметр GMC формата : Без точки перехода
Параметр матрицы формата : Default (H.263)
Идентификатор кодека : XVID
Идентификатор кодека/Подсказка : XviD
Продолжительность : 44 м.
Битрейт : 1677 Кбит/сек
Ширина : 720 пикселей
Высота : 400 пикселей
Соотношение сторон : 16:9
Частота кадров : 23,976 (23976/1000) кадра/сек
Цветовое пространство : YUV
Субдискретизация насыщенности : 4:2:0
Битовая глубина : 8 бит
Тип развёртки : Прогрессивная
Метод сжатия : С потерями
Бит/(Пиксели*Кадры) : 0.243
Размер потока : 535 Мбайт (89%)
Библиотека кодирования : XviD 73
Аудио
Идентификатор : 1
Формат : AC-3
Формат/Информация : Audio Coding 3
Расширение режима : CM (complete main)
Параметр Endianness формата : Big
Идентификатор кодека : 2000
Продолжительность : 44 м.
Вид битрейта : Постоянный
Битрейт : 192 Кбит/сек
Каналы : 2 канала
Расположение каналов : Front: L R
Частота : 48,0 КГц
Частота кадров : 31,250 кадров/сек (1536 spf)
Метод сжатия : С потерями
Размер потока : 61,2 Мбайт (10%)
Выравнивание : Разделение по промежуткам
Продолжительность промежутка : 42 мс. (1,00 видеокадр)
Время предзагрузки промежутка : 500 мс.
Download / Скачать

Хотите скачать бесплатно? Зарегистрируйтесь на сайте (ссылка на регистрацию). Pirat.ca - самый быстрый торрент трекер в рунете!

Как скачивать  ·   Что такое торрент  ·   Рейтинг и ограничения

kerr138

Шкипер

Пост 25-Июл-2016 07:49 (спустя 9 часов)

[Q] 

somik, Вы забыли в ролях указать Ханну Спирит (блондинка на постере).
[Профиль]  [ЛС] 

somik ®

Легенда

26680

Пост 25-Июл-2016 14:53 (спустя 7 часов)

[Q] 

760779somik, Вы забыли в ролях указать Ханну Спирит (блондинка на постере).
Мэм, я не забыл: её в ролях на упаковке диска не было. А так как я не могу простить предыдущее "искусство", - решил не уточнять... ah

_________________
Всё когда-нибудь уже было... В интернете!
[Профиль]  [ЛС] 
Показать сообщения:    
Ответить на тему

Текущее время: Сегодня 06:22

Часовой пояс: GMT + 4



Вы не можете начинать темы
Вы не можете отвечать на сообщения
Вы не можете редактировать свои сообщения
Вы не можете удалять свои сообщения
Вы не можете голосовать в опросах
Вы не можете прикреплять файлы к сообщениям
Вы не можете скачивать файлы

▼ Вниз