ML
     
  Уважаемый Гость!
Вы можете поддержать проект и зарегистрироваться у наших партнеров - онлайн-стратегия MyLands. При регистрации в игре Вы получите код, который сможете активировать после регистрации на pirat.ca и получить 1000 дублонов.

Ваш код:
2932e5898d0a27592397f70b82a5834d1e70ea19
 
     

Очень странные дела / Stranger Things / Сезон: 1 / Серии: 1-8 (8) (Мэтт Даффер / Matt Duffer, ...) [2016 г., ужасы, триллер, драма, WEB-DLRip, 720p] MVO (Jaskier, LostFilm) + Original (Eng) + Sub (Eng)

Ответить на тему
 
Автор
Сообщение

Пост 28-Июл-2016 15:54

[Q] 

TERMOS

Легенда

-Очень странные дела / Stranger Things
(1 сезон)
-- Производство: США
Жанр: ужасы, триллер, драма
Год выпуска: 2016 г.
Продолжительность: 8x ~00:50:00
Перевод: Профессиональный (многоголосый, закадровый) [Jaskier]
Перевод 2: Профессиональный (многоголосый, закадровый) [LostFilm]
Оригинальный аудиопоток: английский
Режиссер: Мэтт Даффер / Matt Duffer, Росс Даффер / Ross Duffer, Шон Леви / Shawn Levy-В ролях: Вайнона Райдер, Дэвид Харбор, Финн Вулфард, Милли Бобби Браун, Гейтен Матараццо, Калеб МакЛафлин, Ной Шнапп, Наталия Дайер, Чарли Хитон, Мэттью Модайн-Описание: Главное действие сериала разворачивается в 80-х годах на территории тихого провинциального города. Благоприятное течение местной жизни нарушает загадочное исчезновение подростка по имени Уилл. Выяснить обстоятельства дела, полны решимости родные мальчика и местный шериф. Также события затрагивают лучшего друга Уилла – Майка. Он начинает собственное расследование. Теперь Майк уверен, что близок к разгадке, однако для этого ему предстоит оказаться в эпицентре ожесточенной битвы потусторонних сил.
- - -Качество видео: WEB-DLRip
Контейнер: MKV
Стандарт разрешения: 720p
Видео кодек: H.264/AVC
Аудио кодек: AC3
Видео: 1280x640 at 23.976 fps, ~4000 kbps avg
Аудио: Russian: 48 kHz, AC3, 3/2 (L,C,R,l,r) + LFE ch, ~384.00 kbps avg |Многоголосый закадровый, Jaskier|
Аудио #2: Russian: 48 kHz, AC3, 3/2 (L,C,R,l,r) + LFE ch, ~384.00 kbps avg |Многоголосый закадровый, LostFilm|
Cубтитры: английские
01: Chapter One: The Vanishing of Will Byers / Глава первая. Исчезновение Уилла Байерса
02: Chapter Two: The Weirdo on Maple Street / Глава вторая. Чудачка на Мэйпл Стрит
03: Chapter Three: Holly, Jolly / Глава третья. Привет, Холли
04: Chapter Four: The Body / Глава четвёртая. Труп
05: Chapter Five: The Flea and the Acrobat / Глава пятая. Блоха и акробат
06: Chapter Six: The Monster / Глава шестая. Чудовище
07: Chapter Seven: The Bathtub / Глава седьмая. Ванная
08: Chapter Eight: The Upside Down / Глава восьмая. Обратная сторона
Код:
Format                      : Matroska
Format version              : Version 4 / Version 2
File size                   : 1.77 GiB
Duration                    : 48mn 16s
Overall bit rate            : 5 259 Kbps
Movie name                  : Stranger Things 1x01 (2016) - Release kmarats for HDCLUB
Encoded date                : UTC 2016-07-21 06:29:02
Writing application         : mkvmerge v9.2.0 ('Photograph') 64bit
Writing library             : libebml v1.3.3 + libmatroska v1.4.4
Video
ID                          : 1
Format                      : AVC
Format/Info                 : Advanced Video Codec
Format profile              : [email protected]
Format settings, CABAC      : Yes
Format settings, ReFrames   : 10 frames
Codec ID                    : V_MPEG4/ISO/AVC
Duration                    : 48mn 16s
Bit rate                    : 4 003 Kbps
Width                       : 1 280 pixels
Height                      : 640 pixels
Display aspect ratio        : 2.000
Frame rate mode             : Constant
Frame rate                  : 23.976 fps
Color space                 : YUV
Chroma subsampling          : 4:2:0
Bit depth                   : 8 bits
Scan type                   : Progressive
Bits/(Pixel*Frame)          : 0.204
Stream size                 : 1.35 GiB (76%)
Title                       : Stranger Things 1x01 (2016) - Release kmarats for HDCLUB
Writing library             : x264 core 144 r2525 40bb568
Encoding settings           : cabac=1 / ref=10 / deblock=1:-3:-3 / analyse=0x3:0x133 / me=umh / subme=10 / psy=1 / psy_rd=1.00:0.00 / mixed_ref=1 / me_range=48 / chroma_me=1 / trellis=2 / 8x8dct=1 / cqm=0 / deadzone=21,11 / fast_pskip=1 / chroma_qp_offset=-2 / threads=12 / lookahead_threads=2 / sliced_threads=0 / nr=0 / decimate=1 / interlaced=0 / bluray_compat=0 / constrained_intra=0 / bframes=8 / b_pyramid=2 / b_adapt=2 / b_bias=0 / direct=3 / weightb=1 / open_gop=0 / weightp=2 / keyint=250 / keyint_min=23 / scenecut=40 / intra_refresh=0 / rc=crf / mbtree=0 / crf=18.0 / qcomp=0.60 / qpmin=0 / qpmax=69 / qpstep=4 / ip_ratio=1.30 / pb_ratio=1.20 / aq=3:0.80
Language                    : English
Default                     : Yes
Forced                      : No
Audio #1
ID                          : 2
Format                      : AC-3
Format/Info                 : Audio Coding 3
Mode extension              : CM (complete main)
Format settings, Endianness : Big
Codec ID                    : A_AC3
Duration                    : 48mn 16s
Bit rate mode               : Constant
Bit rate                    : 384 Kbps
Channel(s)                  : 6 channels
Channel positions           : Front: L C R, Side: L R, LFE
Sampling rate               : 48.0 KHz
Bit depth                   : 16 bits
Compression mode            : Lossy
Stream size                 : 133 MiB (7%)
Title                       : Jaskier
Language                    : Russian
Default                     : Yes
Forced                      : No
Audio #2
ID                          : 3
Format                      : AC-3
Format/Info                 : Audio Coding 3
Mode extension              : CM (complete main)
Format settings, Endianness : Big
Codec ID                    : A_AC3
Duration                    : 48mn 16s
Bit rate mode               : Constant
Bit rate                    : 384 Kbps
Channel(s)                  : 6 channels
Channel positions           : Front: L C R, Side: L R, LFE
Sampling rate               : 48.0 KHz
Bit depth                   : 16 bits
Compression mode            : Lossy
Stream size                 : 133 MiB (7%)
Title                       : LostFilm
Language                    : Russian
Default                     : No
Forced                      : No
Audio #3
ID                          : 4
Format                      : AC-3
Format/Info                 : Audio Coding 3
Mode extension              : CM (complete main)
Format settings, Endianness : Big
Codec ID                    : A_AC3
Duration                    : 48mn 16s
Bit rate mode               : Constant
Bit rate                    : 384 Kbps
Channel(s)                  : 6 channels
Channel positions           : Front: L C R, Side: L R, LFE
Sampling rate               : 48.0 KHz
Bit depth                   : 16 bits
Compression mode            : Lossy
Stream size                 : 133 MiB (7%)
Title                       : English
Language                    : English
Default                     : No
Forced                      : No
Text
ID                          : 5
Format                      : UTF-8
Codec ID                    : S_TEXT/UTF8
Codec ID/Info               : UTF-8 Plain Text
Title                       : eng-sub
Language                    : English
Default                     : No
Forced                      : No
Download / Скачать

Хотите скачать бесплатно? Зарегистрируйтесь на сайте (ссылка на регистрацию). Pirat.ca - самый быстрый торрент трекер в рунете!

Как скачивать  ·   Что такое торрент  ·   Рейтинг и ограничения



Последний раз редактировалось: TERMOS (2016-08-23 00:17), всего редактировалось 2 раз(а)

TERMOS ®

Легенда

12039

Пост 06-Авг-2016 22:59 (спустя 9 дней)

[Q] 

Добавлены 4-6 серии. Обновите торрент-файл!

_________________
[Профиль]  [ЛС] 

Romamessiah

Штурман

Пост 07-Авг-2016 03:58 (спустя 4 часа)

[Q] 

762107Добавлены 4-6 серии. Обновите торрент-файл!
Классный сериал!!!
[Профиль]  [ЛС] 

TERMOS ®

Легенда

12039

Пост 10-Авг-2016 22:04 (спустя 3 дня)

[Q] 

Добавлена 7-я серия. Обновите торрент-файл!

_________________
[Профиль]  [ЛС] 

yavin86

Пост 21-Авг-2016 22:34 (спустя 11 дней)

[Q] 

8-я скоро будет?) а то это единственная HD раздача, а 7 серия уже просмотрена...
[Профиль]  [ЛС] 

TERMOS ®

Легенда

12039

Пост 23-Авг-2016 00:18 (спустя 1 день 1 час)

[Q] 

Добавлена 8-я серия. Финал сезона! Обновите торрент-файл!

_________________
[Профиль]  [ЛС] 
Показать сообщения:    
Ответить на тему

Текущее время: Сегодня 08:02

Часовой пояс: GMT + 4



Вы не можете начинать темы
Вы не можете отвечать на сообщения
Вы не можете редактировать свои сообщения
Вы не можете удалять свои сообщения
Вы не можете голосовать в опросах
Вы не можете прикреплять файлы к сообщениям
Вы не можете скачивать файлы

▼ Вниз