ML
     
  Уважаемый Гость!
Вы можете поддержать проект и зарегистрироваться у наших партнеров - онлайн-стратегия MyLands. При регистрации в игре Вы получите код, который сможете активировать после регистрации на pirat.ca и получить 1000 дублонов.

Ваш код:
a261790f23fb05d13d060bdee9cb70d1451a6d3d
 
     

Хемлок Гроув / Hemlock Grove / Сезон: 3 / Серии: 1-10 из 10 (Дэвид Стрейтон / David Straiton, ...) [2015 г., Ужасы, фантастика, триллер, WEB-DLRip] MVO (NewStudio) + Original (Eng)

Ответить на тему
 
Автор
Сообщение

Пост 30-Июл-2016 03:21

[Q] 

somik

Легенда

-Хемлок Гроув / Hemlock Grove-- Производство: США, NetFlix, Gaumont International Television, Mad Hatter Entertainment, Strike Entertainment
Жанр: Ужасы, фантастика, триллер
Год выпуска: 2015 г.
Продолжительность: 00:55:00
Мировая премьера: 23 октября 2015
Перевод: Профессиональный (многоголосый, закадровый) [NewStudio]
Оригинальный аудиопоток: английский
Режиссер: Дэвид Стрейтон / David Straiton, ...-В ролях: Фамке Янссен, Пенелопа Митчелл, Фрея Тингли, Лили Тейлор, Билл Скарсгард, Лэндон Либуарон, Дюгрэй Скотт, Николь Буавен, Аарон Дуглас, Лори Фортье-Описание: В городке Хемлок Гроув, выросшем вокруг сталелитейного завода Годфри, находят изувеченное тело девушки. Некоторые подозревают беглеца из «Белой Башни», биотехнологической лаборатории, принадлежащей бывшим владельцам завода. Другие полагают, что убийца — Питер, семнадцатилетний цыган, который рассказывает одноклассникам, что он оборотень. Третий подозреваемый — Роман (Скарсгаард), отпрыск рода Годфри. Не дожидаясь, пока власти найдут убийцу, Питер и Роман решают сами раскрыть это преступление. Им предстоит узнать немало страшных тайн о городе, в котором они живут, и о самих себе.-
Качество видео: WEB-DLRip
Контейнер: AVI
Видео кодек: XviD
Аудио кодек: MP3
Видео: 720x400 (1.80:1), 23.976 fps, XviD MPEG-4 ~1435 kbps avg, 0.21 bit/pixel Audio
Аудио: 48 kHz, MPEG Layer 3, 2 ch, ~128.00 kbps avg
Аудио #2: 48 kHz, MPEG Layer 3, 2 ch, ~128.00 kbps avg
Cубтитры: отсутствуют
Что-то новое на старую тему!
Наверное, каждый начинал смотреть Хемлок Гроу с некой опаской. Ведь описание сериала не двусмысленно намекает на то, что нам покажут нечто на подобии Дневников вампира или сумерек ведь здесь вам и богатые бледнолицые вампиры, и живущее в трейлере цыгане — оборотни и все это в маленьком невзрачном городке. Но нет, Хемлок Гроу показал нам, что концепция вампиров и оборотней может развиваться не только по шаблону сумерек. Здесь все очень мрачно и таинственно, актеры отыгрывают свои роли как надо, сюжет держит до конца не отпуская, а финал захватывает и оставляет тебя сидеть с отпавшим до пола ртом. Хемлок Гроу предоставляет персонажей которым по настоящему сопереживаешь, разделяя в какой-то степени их тревоги.
Также этот сериал всегда разный, вот вы смотрите мистический триллер, а в следующей серии всё сменяется драмой плавно переходящей в фильм о подростковых отношениях. Все это приправленное хорошей музыкой захватывает и после заставляет о многом задуматься.
Да, сериал не идеален. Есть раздражающие персонажи и невзрачные мелочи которые всегда можно найти если придраться. Но в целом если вам захотелось посмотреть нечто мистически — таинственное с хорошим сюжетом, то Хемлок Гроу отличный выбор.
9 из 10
Общее
Полное имя : E:\!СЕРИАЛЫ\Hemlock Grove - Хемлок Гроув\Hemlock Grove.S03.NewStudio.[pirat.ca]\Hemlock.Grove.s03e01.WEBRip.NewStudio.TV.avi
Формат : AVI
Формат/Информация : Audio Video Interleave
Размер файла : 700 Мбайт
Продолжительность : 57 м.
Общий поток : 1706 Кбит/сек
Название фильма : Hemlock.Grove.s03e01.WEBRip.NewStudio.TV
Программа кодирования : VirtualDubMod 1.5.10.2 (build 2540/release)
Видео
Идентификатор : 0
Формат : MPEG-4 Visual
Профиль формата : Advanced [email protected]
Параметр BVOP формата : 2
Параметр QPel формата : Нет
Параметр GMC формата : Без точки перехода
Параметр матрицы формата : Default (MPEG)
Идентификатор кодека : XVID
Идентификатор кодека/Подсказка : XviD
Продолжительность : 57 м.
Битрейт : 1437 Кбит/сек
Ширина : 720 пикселей
Высота : 400 пикселей
Соотношение сторон : 16:9
Частота кадров : 23,976 (23976/1000) кадра/сек
Цветовое пространство : YUV
Субдискретизация насыщенности : 4:2:0
Битовая глубина : 8 бит
Тип развёртки : Прогрессивная
Метод сжатия : С потерями
Бит/(Пиксели*Кадры) : 0.208
Размер потока : 589 Мбайт (84%)
Библиотека кодирования : XviD 73
Аудио #1
Идентификатор : 1
Формат : MPEG Audio
Версия формата : Version 1
Профиль формата : Layer 3
Идентификатор кодека : 55
Идентификатор кодека/Подсказка : MP3
Продолжительность : 57 м.
Вид битрейта : Постоянный
Битрейт : 128 Кбит/сек
Каналы : 2 канала
Частота : 48,0 КГц
Метод сжатия : С потерями
Размер потока : 52,5 Мбайт (8%)
Выравнивание : Соединение по промежуткам
Продолжительность промежутка : 42 мс. (1,00 видеокадр)
Время предзагрузки промежутка : 504 мс.
Аудио #2
Идентификатор : 2
Формат : MPEG Audio
Версия формата : Version 1
Профиль формата : Layer 3
Режим : Joint stereo
Расширение режима : MS Stereo
Идентификатор кодека : 55
Идентификатор кодека/Подсказка : MP3
Продолжительность : 57 м.
Вид битрейта : Постоянный
Битрейт : 128 Кбит/сек
Каналы : 2 канала
Частота : 48,0 КГц
Метод сжатия : С потерями
Размер потока : 52,5 Мбайт (8%)
Выравнивание : Соединение по промежуткам
Продолжительность промежутка : 42 мс. (1,00 видеокадр)
Время предзагрузки промежутка : 504 мс.
Библиотека кодирования : LAME3.99r
Настройки программы : -m j -V 4 -q 2 -lowpass 17 -b 128
Download / Скачать

Хотите скачать бесплатно? Зарегистрируйтесь на сайте (ссылка на регистрацию). Pirat.ca - самый быстрый торрент трекер в рунете!

Как скачивать  ·   Что такое торрент  ·   Рейтинг и ограничения

Показать сообщения:    
Ответить на тему

Текущее время: Сегодня 20:01

Часовой пояс: GMT + 4



Вы не можете начинать темы
Вы не можете отвечать на сообщения
Вы не можете редактировать свои сообщения
Вы не можете удалять свои сообщения
Вы не можете голосовать в опросах
Вы не можете прикреплять файлы к сообщениям
Вы не можете скачивать файлы

▼ Вниз