ML
     
  Уважаемый Гость!
Вы можете поддержать проект и зарегистрироваться у наших партнеров - онлайн-стратегия MyLands. При регистрации в игре Вы получите код, который сможете активировать после регистрации на pirat.ca и получить 1000 дублонов.

Ваш код:
2932e5898d0a27592397f70b82a5834d1e70ea19
 
     

Особо тяжкие преступления / Major Crimes / Сезон: 1 / Серии: 1-10 из 10 (Майкл М. Робин / Michael M. Robin, ...) [2012 г., драма, криминал, детектив, HDTVRip] DVO (DreamRecords: Christh & eske)

Ответить на тему
 
Автор
Сообщение

Пост 30-Июл-2016 05:01

[Q] 

somik

Легенда

-Особо тяжкие преступления / Major Crimes-- Производство: США, Warner Bros. Television
Жанр: драма, криминал, детектив
Год выпуска: 2012 г.
Продолжительность: 00:44:00
Мировая премьера: 13 августа 2012
Перевод: Любительский (двухголосый, закадровый) [DreamRecords: Christh & eske]
Режиссер: Майкл М. Робин / Michael M. Robin, ...-В ролях: Мэри Макдоннелл (Mary McDonnell), Дж. У. Бейли (G.W. Bailey), Энтони Дэнисон (Tony Denison), Майкл Пол Чан (Michael Paul Chan), Рэймонд Крус (Raymond Cruz), Филлип П. Кин (Phillip P. Keene), Кирран Джованни (Kearran Giovanni), Грэхэм Патрик Мартин (Graham Patrick Martin), Джонатан Дель Арко (Jonathan Del Arco), Рэнсфорд Доэрти (Ransford Doherty), Роберт Госсетт (Robert Gossett), Джон Тенни (Jon Tenney), Ian Bohen (Ian Bohen), Kathe Mazur (Kathe Mazur), Anthony Ruivivar (Anthony Ruivivar), Erich Anderson (Erich Anderson), Steve Tom (Steve Tom), Sonya Leslie (Sonya Leslie) и другие-Описание: Продолжение сериала «Ищейка». После увольнения Бренды Ли Джонсон руководство Отделом особо опасных преступлений полиции Лос-Анджелеса берёт в свои руки капитан Рэйдор. Однако героине предстоит работать в команде, которая заранее испытывает к ней антипатию — ведь антипатию к ней всегда испытывала шеф Джонсон.-
Качество видео: HDTVRip
Контейнер: AVI
Видео кодек: XviD
Аудио кодек: MP3
Видео: 720x400 (1.80:1), 23.976 fps, ATI YVU12 4:2:0 Planar ~1293 kbps avg, 0.19 bit/pixel
Аудио: 48 kHz, MPEG Layer 3, 2 ch, ~224.00 kbps avg
Cубтитры: отсутствуют
Достойное продолжение
Всеми любимая Ищейка подошла к концу. Бренда Ли Джонсон покинула LAPD и неожиданно для всех ей на смену приходит Шэрон Рэйдор — женщина, с которой Бренда находилась в контрах с пятого сезона. И несмотря на то, что отношения между ними сильно потеплели в течение заключительного сезона Ищейки, капитану Рэйдор предстоит пройти через недоверие и неприкрытую ненависть со стороны некоторых членов отдела особо тяжких преступлений прежде чем она станет полноценным членом сплоченной команды.
Нужно сказать, что сериал Major Crimes (Особо тяжкие преступления) ничем не уступает Ищейке. Конечно, нет Бренды, но на самом деле сериал это ничуть не портит. Да и замену ей подобрали блестящую. Шэрон Рэйдор в исполнении Мэри МакДоннелл прекрасно вписалась в общую картину, быстро взяв управление отделом в свои руки и завоевав любовь фанатов сериала.
Как всегда блистательно продуманные эпизоды, море юмора, интриг и переживаний. Интересна линия Шэрон и молодого паренька по имени Расти, перекочевавшего в Major Crimes из последних серий Ищейки. Взаимоотношения молодости и зрелости, можно даже сказать матерей и детей. Весьма хороший ход со стороны сценаристов. Хорошо вписалась в общую картину и новый сотрудник отдела Эми Сайкс — достойная замена Девиду Гэбриэлу.
Интригует и конец сезона. Кажется сценаристы задумали нечто грандиозное, но узнаем мы об этом лишь летом, когда стартует новый сезон сериала.
Сценаристы не выкладывают все карты на стол, постепенно развивая не только сюжет в общем, но и внутренний мир каждого из персонажей.
Без сомнений, этот сериал интересен для просмотра не только фанатам Ищейки, но и тем, кто просто любит интересные, захватывающие детективные истории с неожиданными развязками и богатым внутренним миром героев.
Общее
Полное имя : E:\!СЕРИАЛЫ\ИЩЕЙКА\Major Crimes.S01.2012.HDTVRip.DreamRecords.[pirat.ca]\Major.Crimes.S01E01.HDTVRip 400p.XviD [DreamRecords].avi
Формат : AVI
Формат/Информация : Audio Video Interleave
Размер файла : 467 Мбайт
Продолжительность : 42 м.
Общий поток : 1527 Кбит/сек
Название фильма : Major.Crimes.S01E01.HDTVRip 400p.XviD [DreamRecords]
Программа кодирования : VirtualDubModRus 1.5.10.2 (build 2542/release)
Видео
Идентификатор : 0
Формат : MPEG-4 Visual
Профиль формата : Advanced [email protected]
Параметр BVOP формата : 1
Параметр QPel формата : Нет
Параметр GMC формата : Без точки перехода
Параметр матрицы формата : Default (MPEG)
Идентификатор кодека : XVID
Идентификатор кодека/Подсказка : XviD
Продолжительность : 42 м.
Битрейт : 1294 Кбит/сек
Ширина : 720 пикселей
Высота : 400 пикселей
Соотношение сторон : 16:9
Частота кадров : 23,976 (24000/1001) кадра/сек
Цветовое пространство : YUV
Субдискретизация насыщенности : 4:2:0
Битовая глубина : 8 бит
Тип развёртки : Прогрессивная
Метод сжатия : С потерями
Бит/(Пиксели*Кадры) : 0.187
Размер потока : 396 Мбайт (85%)
Библиотека кодирования : XviD 64
Аудио
Идентификатор : 1
Формат : MPEG Audio
Версия формата : Version 1
Профиль формата : Layer 3
Режим : Joint stereo
Идентификатор кодека : 55
Идентификатор кодека/Подсказка : MP3
Продолжительность : 42 м.
Вид битрейта : Постоянный
Битрейт : 224 Кбит/сек
Каналы : 2 канала
Частота : 48,0 КГц
Метод сжатия : С потерями
Размер потока : 68,6 Мбайт (15%)
Выравнивание : Соединение по промежуткам
Продолжительность промежутка : 42 мс. (1,00 видеокадр)
Время предзагрузки промежутка : 504 мс.
Download / Скачать

Хотите скачать бесплатно? Зарегистрируйтесь на сайте (ссылка на регистрацию). Pirat.ca - самый быстрый торрент трекер в рунете!

Как скачивать  ·   Что такое торрент  ·   Рейтинг и ограничения

Показать сообщения:    
Ответить на тему

Текущее время: Сегодня 08:00

Часовой пояс: GMT + 4



Вы не можете начинать темы
Вы не можете отвечать на сообщения
Вы не можете редактировать свои сообщения
Вы не можете удалять свои сообщения
Вы не можете голосовать в опросах
Вы не можете прикреплять файлы к сообщениям
Вы не можете скачивать файлы

▼ Вниз