ML
     
  Уважаемый Гость!
Вы можете поддержать проект и зарегистрироваться у наших партнеров - онлайн-стратегия MyLands. При регистрации в игре Вы получите код, который сможете активировать после регистрации на pirat.ca и получить 1000 дублонов.

Ваш код:
ca44e9295b9b8527ba1c339c20494f70782efea6
 
     

Уборщики / Чистильщики / Mr & Mrs Murder / Сезон: 1 / Серии: 1-13 из 13 (Сиан Дейвис Sian Davies, ...) [2013 г., комедия, детектив, DVDRip] MVO (ViruseProject)

Ответить на тему
 
Автор
Сообщение

Пост 30-Июл-2016 05:15

[Q] 

somik

Легенда

-Уборщики / Чистильщики / Mr & Mrs Murder-- Производство: Австралия, FremantleMedia
Жанр: комедия, детектив
Год выпуска: 2013 г.
Продолжительность: 00:45:00
Мировая премьера: 20 февраля 2013
Перевод: Любительский (многоголосый, закадровый) [ViruseProject]
Режиссер: Сиан Дейвис Sian Davies, ...-В ролях: Шон Микаллеф, Кэт Стюарт (Леди-детектив мисс Фрайни Фишер), Джонатон Пасвольски, Белинда Бромилов (Оживший), Люси Хонигман, Бен Гюренс, Джорджина Найду, Энтони Хэйес, Элисон Белл, Мэтью Дукански, Хьюго Джонстон-Барт (Леди-детектив мисс Фрайни Фишер) и др.-Описание: Детективный сериал, повествующий о приключениях семейной пары, занимающейся необычным бизнесом — уборкой мест преступлений.-
Качество видео: DVDRip
Контейнер: AVI
Видео кодек: XviD
Аудио кодек: MP3
Видео: 624x352 (1.77:1), 25 fps, XviD build 50 ~953 kbps avg, 0.17 bit/pixel
Аудио: 48 kHz, MPEG Layer 3, 2 ch, ~192.00 kbps avg
Cубтитры: отсутствуют
Общее
Полное имя : C:\герои 7\Уборщики\Mr And Mrs Murder.S01.ViruseProject.[pirat.ca]\Mr.And.Mrs.Murder.S01E01.ViruseProject.avi
Формат : AVI
Формат/Информация : Audio Video Interleave
Размер файла : 370 Мбайт
Продолжительность : 44 м.
Общий поток : 1156 Кбит/сек
Название фильма : Mr.And.Mrs.Murder.S01E01.ViruseProject
Программа кодирования : VirtualDubMod 1.5.10.2 (build 2540/release)
Видео
Идентификатор : 0
Формат : MPEG-4 Visual
Профиль формата : Advanced [email protected]
Параметр BVOP формата : 2
Параметр QPel формата : Нет
Параметр GMC формата : Без точки перехода
Параметр матрицы формата : Default (H.263)
Идентификатор кодека : XVID
Идентификатор кодека/Подсказка : XviD
Продолжительность : 44 м.
Битрейт : 954 Кбит/сек
Ширина : 624 пикселя
Высота : 352 пикселя
Соотношение сторон : 16:9
Частота кадров : 25,000 кадров/сек
Цветовое пространство : YUV
Субдискретизация насыщенности : 4:2:0
Битовая глубина : 8 бит
Тип развёртки : Прогрессивная
Метод сжатия : С потерями
Бит/(Пиксели*Кадры) : 0.174
Размер потока : 306 Мбайт (83%)
Библиотека кодирования : XviD 64
Аудио
Идентификатор : 1
Формат : MPEG Audio
Версия формата : Version 1
Профиль формата : Layer 3
Идентификатор кодека : 55
Идентификатор кодека/Подсказка : MP3
Продолжительность : 44 м.
Вид битрейта : Постоянный
Битрейт : 192 Кбит/сек
Каналы : 2 канала
Частота : 48,0 КГц
Метод сжатия : С потерями
Размер потока : 61,5 Мбайт (17%)
Выравнивание : Разделение по промежуткам
Продолжительность промежутка : 40 мс. (1,00 видеокадр)
Время предзагрузки промежутка : 500 мс.
Download / Скачать

Хотите скачать бесплатно? Зарегистрируйтесь на сайте (ссылка на регистрацию). Pirat.ca - самый быстрый торрент трекер в рунете!

Как скачивать  ·   Что такое торрент  ·   Рейтинг и ограничения

Показать сообщения:    
Ответить на тему

Текущее время: Сегодня 16:14

Часовой пояс: GMT + 4



Вы не можете начинать темы
Вы не можете отвечать на сообщения
Вы не можете редактировать свои сообщения
Вы не можете удалять свои сообщения
Вы не можете голосовать в опросах
Вы не можете прикреплять файлы к сообщениям
Вы не можете скачивать файлы

▼ Вниз