ML
     
  Уважаемый Гость!
Вы можете поддержать проект и зарегистрироваться у наших партнеров - онлайн-стратегия MyLands. При регистрации в игре Вы получите код, который сможете активировать после регистрации на pirat.ca и получить 1000 дублонов.

Ваш код:
11f49771fdf057c9d51610e4a0925c3b46ddb655
 
     

Забытые / The Forgotten / Сезон: 1 / Серии: 1-17 из 17 (Джеффри Дж. Хант / Jeffrey G. Hunt, ...) [2009 г., криминальная драма, HDTVRip] MVO (LostFilm)

Ответить на тему
 
Автор
Сообщение

Пост 30-Июл-2016 05:42

[Q] 

somik

Легенда

-Забытые / The Forgotten-- Производство: США, Bonanza Productions, Jerry Bruckheimer Television, Warner Bros. Television
Жанр: криминальная драма
Год выпуска: 2009 г.
Продолжительность: 00:45:00
Мировая премьера: 22 сентября 2009
Перевод: Профессиональный (многоголосый, закадровый) [LostFilm]
Режиссер: Джеффри Дж. Хант / Jeffrey G. Hunt, ...-В ролях: Кристиан Слэйтер (Christian Slater), Мишелль Борт (Michelle Borth), Энтони Кэрриган (Anthony Carrigan), Боб Стивенсон (Bob Stephenson), Рошель Эйтс (Rochelle Aytes) и др.-Описание: Умер, но не забыт. Что если убийца забрал не только вашу жизнь, но и ваше имя? В каждом городе есть неопознанные жертвы убийств. Когда стандартных полицейских процедур недостаточно для того, чтобы опознать тело, в дело вступает Identity Network…-
Качество видео: HDTVRip
Контейнер: AVI
Видео кодек: XviD
Аудио кодек: MP3
Видео: 640x368 (1.74:1), 23.976 fps, XviD build 50 ~1477 kbps avg, 0.26 bit/pixel
Аудио: 48 kHz, MPEG Layer 3, 2 ch, ~128.00 kbps avg
Cубтитры: отсутствуют
Список серий:
Пилот (Pilot)
Девушка с бриллиантом (Diamond Jane)
Неизвестный футболист (Football John)
Парашютная девушка (Parachute Jane)
Парень из реки (River John)
Парень с собакой (Canine John)
Девушка на железной дороге (Railroad Jane)
Незнакомка в заключении (Prisoner Jane)
Везунчик (Lucky John)
Двое неизвестных (Double Doe)
Подопытный (Patient John)
Мой неизвестный (My John)
Неизвестная мама (Mama Jane)
Пассажирка (Train Jane)
Разгадка Донована (Donovan Doe)
Дизайнер (Designer Jane)
Живой (Living Doe)
Они возвращают людям их имена…
Стоит отметить великое-превеликое множество детективных сериалов в наше время. Среди такого разнообразия невольно приходится выкручиваться, придумывая какие-то новые акценты, детали.
В этом сериале очень интересная задумка-группа волонтёров расследует дела, в которых полиция зашла в тупик из-за невозможности идентифицировать труп жертвы. Удивительно как эта команда по незначительным деталям, в ходе трудной, кропотливой и частенько опасной работы умудряется вернуть погибшему человеку имя, дать правду родственникам, да ещё и виновного посадить в тюрьму!
Соприкасаются (в чём-то контрастны) ситуации неизвестных с историей Алекса Донована. Невольно соотносишь все истории с ним, так как в любом случае родственники погибших благодаря работе команды успокаиваются, смиряются с правдой, ведь нет ничего хуже неопределённости. Но Алекс в это время страдает от неизвестности, помогая другим, он не может помочь себе. Кристиан Слайтер очень убедительно его сыграл.
Очень интересен состав команды, хоть их характеры не очень сильно прорисованы, всё равно они колоритны и интересны.
Интересная задумка, когда жертва рассказывает голосом за кадром свою историю, вспоминая в ходе расследования. Многие из них приходят к очень глубоким выводам, и, несмотря на то, что они мертвы-они жили, стремились к своей мечте и жили так, как велело им сердце.
Сериал интересный, смотрится на одном дыхании, иногда быввают весёлые моменты, чаще-трагические, но всё это органично вплетается в канву повествования
9 из 10
Общее
Полное имя : E:\!СЕРИАЛЫ\Забытые\The Forgotten.S01.LostFilm.[pirat.ca]\The.Forgotten.S01E01.rus.LostFilm.TV.avi
Формат : AVI
Формат/Информация : Audio Video Interleave
Размер файла : 533 Мбайт
Продолжительность : 45 м.
Общий поток : 1619 Кбит/сек
Название фильма : The.Forgotten.S01E01.rus.LostFilm.TV
Программа кодирования : Nandub v1.0rc2
Видео
Идентификатор : 0
Формат : MPEG-4 Visual
Профиль формата : Advanced [email protected]
Параметр BVOP формата : Нет
Параметр QPel формата : Нет
Параметр GMC формата : Без точки перехода
Параметр матрицы формата : Выборочная
Идентификатор кодека : XVID
Идентификатор кодека/Подсказка : XviD
Продолжительность : 45 м.
Битрейт : 1479 Кбит/сек
Ширина : 640 пикселей
Высота : 368 пикселей
Соотношение сторон : 1,739
Частота кадров : 23,976 (23976/1000) кадра/сек
Цветовое пространство : YUV
Субдискретизация насыщенности : 4:2:0
Битовая глубина : 8 бит
Тип развёртки : Прогрессивная
Метод сжатия : С потерями
Бит/(Пиксели*Кадры) : 0.262
Размер потока : 486 Мбайт (91%)
Библиотека кодирования : XviD 1.2.1 (UTC 2008-12-04)
Аудио
Идентификатор : 1
Формат : MPEG Audio
Версия формата : Version 1
Профиль формата : Layer 3
Режим : Joint stereo
Расширение режима : MS Stereo
Идентификатор кодека : 55
Идентификатор кодека/Подсказка : MP3
Продолжительность : 45 м.
Вид битрейта : Постоянный
Битрейт : 128 Кбит/сек
Каналы : 2 канала
Частота : 48,0 КГц
Метод сжатия : С потерями
Размер потока : 42,1 Мбайт (8%)
Выравнивание : Соединение по промежуткам
Продолжительность промежутка : 24 мс. (0,58 видеокадр)
Время предзагрузки промежутка : 480 мс.
Download / Скачать

Хотите скачать бесплатно? Зарегистрируйтесь на сайте (ссылка на регистрацию). Pirat.ca - самый быстрый торрент трекер в рунете!

Как скачивать  ·   Что такое торрент  ·   Рейтинг и ограничения

Показать сообщения:    
Ответить на тему

Текущее время: Сегодня 03:12

Часовой пояс: GMT + 4



Вы не можете начинать темы
Вы не можете отвечать на сообщения
Вы не можете редактировать свои сообщения
Вы не можете удалять свои сообщения
Вы не можете голосовать в опросах
Вы не можете прикреплять файлы к сообщениям
Вы не можете скачивать файлы

▼ Вниз