ML
     
  Уважаемый Гость!
Вы можете поддержать проект и зарегистрироваться у наших партнеров - онлайн-стратегия MyLands. При регистрации в игре Вы получите код, который сможете активировать после регистрации на pirat.ca и получить 1000 дублонов.

Ваш код:
ca44e9295b9b8527ba1c339c20494f70782efea6
 
     

Под несчастливой звездой / Кислород / Star-Crossed / Сезон: 1 / Серии: 1-13 из 13 (Гэри Фледер / Gary Fleder, ...) [2014 г., фантастика, WEB-DLRip] MVO (BaibaKo) + Original (Eng)

Ответить на тему
 
Автор
Сообщение

Пост 30-Июл-2016 20:22

[Q] 

somik

Легенда

-Под несчастливой звездой / Кислород / Star-Crossed-- Производство: США, 360 Powwow, CBS Television Studios, Isla Producciones, Olé, Space Floor, ...
Жанр: фантастика
Год выпуска: 2014 г.
Продолжительность: 00:40:00
Мировая премьера: 17 февраля 2014
Российская премьера: 22 мая 2014
Перевод: Профессиональный (многоголосый, закадровый) [BaibaKo]
Оригинальный аудиопоток: английский
Режиссер: Гэри Фледер / Gary Fleder, ...-В ролях: Челси Джиллигэн, Малез Джоу, Эшлин МакИверс, Кэйден Монтгомри, Эйми Тигарден, Блейкли Дарсам, Старлетт Миариаунии, Тирин Беланжер, Кевонт Макдональд, Виктория Габриэлль Платт и др.-Описание: Люди с другой планеты прибыли на Землю, где их разместили в охраняемом лагере. Спустя 10 лет Роман и шесть представителей его вида были по распоряжению властей переведены в обычную школу. Там он встречает и влюбляется в Эмери…-
Качество видео: WEB-DLRip
Контейнер: AVI
Видео кодек: XviD
Аудио кодек: MP3
Видео: 720x400 (1.80:1), 23.976 fps, XviD build 50 ~1505 kbps avg, 0.22 bit/pixel
Аудио: 48 kHz, MPEG Layer 3, 2 ch, ~192.00 kbps avg
Аудио #2: 44.100 kHz, MPEG Layer 3, 2 ch, ~192.00 kbps avg
Cубтитры: отсутствуют
Съемки пилотной серии проходили в Новом Орлеане.
Первоначальное название сериала — «Кислород» (Oxygen).
Сериал был закрыт из-за низкого рейтинга.
Инопланетный romantique, не давит на мозги и поднимет настроение…
Только что закончила смотреть 13-ю серию. Жаль, конечно, я так поняла, что продолжение не предвидится. Хотя я бы определенно стала смотреть дальше, так как до бреда еще не дошло, как во многих сериалах.
Вполне себе романтическая история о любви «опального» инопланетянина из резервации и обычной школьницы, много лет назад спасшей его после крушения корабля. Сумеречность присутствует, но мне кажется, что этот тип картин можно уже просто объединять в категорию, потому что когда два героя отличаются по происхождении (будь то вампир, оборотень, инопланетянин, призрак и тому подобная муть… Я не вижу ничего ужасного, если картину обзывают «сумеречной», наоборот уже сразу понимаешь о чем речь — о героях с различным агрегатным состоянием/возможностями/образом жизни и т. д.) Это даже толерантно, елки палки! Сюжетная линия очень даже ничего, много поворотов, часто я не могла понять до последнего, на чьей же стороне тот или иной герой. Присутствует логика, даже привязки к научным технологиям (правда я посмеялась над счетчиком Гейгера в телефоне, но хотя бы счетчик правильный назвали).
Друг такой ничего, Дрейк по-моему, такой амбал. Сначала очень дерзкий и радикально настроенный, а потом надежный и лояльный. Интересно наблюдать за его преображением, за появлением его чувств.
Единственное что мне не понравилось это актриса главной роли. Что-т о она старовата, могли бы найти и без морщин, не верится, что ей 16-18 лет. И по типажу она совершенно не подходит Роману. Не смотрятся они вместе.
Подытоживая вышесказанное: сумеречный формат, интересный сюжет, романтика и справедливость.
Я ставлю десяточку, мне понравилось, все выходные смотрела.
Общее
Полное имя : F:\!СЕРИАЛЫ\Star-Crossed.S01.2014.WEB-DLRip.BaibaKo.[pirat.ca]\Star-crossed.s01e01.WEB-DLRip.XviD.Rus.Eng.BaibaKo.tv.avi
Формат : AVI
Формат/Информация : Audio Video Interleave
Размер файла : 582 Мбайт
Продолжительность : 42 м.
Общий поток : 1905 Кбит/сек
Название фильма : Star-crossed.s01e01.WEB-DLRip.XviD.Rus.Eng.BaibaKo.tv
Программа кодирования : VirtualDubMod 1.5.10.2 (build 2540/release)
Видео
Идентификатор : 0
Формат : MPEG-4 Visual
Профиль формата : Advanced [email protected]
Параметр BVOP формата : 2
Параметр QPel формата : Нет
Параметр GMC формата : Без точки перехода
Параметр матрицы формата : Default (H.263)
Идентификатор кодека : XVID
Идентификатор кодека/Подсказка : XviD
Продолжительность : 42 м.
Битрейт : 1506 Кбит/сек
Ширина : 720 пикселей
Высота : 400 пикселей
Соотношение сторон : 16:9
Частота кадров : 23,976 (24000/1001) кадра/сек
Цветовое пространство : YUV
Субдискретизация насыщенности : 4:2:0
Битовая глубина : 8 бит
Тип развёртки : Прогрессивная
Метод сжатия : С потерями
Бит/(Пиксели*Кадры) : 0.218
Размер потока : 460 Мбайт (79%)
Библиотека кодирования : XviD 1.2.1 (UTC 2008-12-04)
Аудио #1
Идентификатор : 1
Формат : MPEG Audio
Версия формата : Version 1
Профиль формата : Layer 3
Режим : Joint stereo
Расширение режима : MS Stereo
Идентификатор кодека : 55
Идентификатор кодека/Подсказка : MP3
Продолжительность : 42 м.
Вид битрейта : Постоянный
Битрейт : 192 Кбит/сек
Каналы : 2 канала
Частота : 48,0 КГц
Метод сжатия : С потерями
Размер потока : 58,6 Мбайт (10%)
Выравнивание : Соединение по промежуткам
Продолжительность промежутка : 42 мс. (1,00 видеокадр)
Время предзагрузки промежутка : 504 мс.
Аудио #2
Идентификатор : 2
Формат : MPEG Audio
Версия формата : Version 1
Профиль формата : Layer 3
Режим : Joint stereo
Расширение режима : MS Stereo
Идентификатор кодека : 55
Идентификатор кодека/Подсказка : MP3
Продолжительность : 42 м.
Вид битрейта : Постоянный
Битрейт : 192 Кбит/сек
Каналы : 2 канала
Частота : 44,1 КГц
Метод сжатия : С потерями
Размер потока : 58,6 Мбайт (10%)
Выравнивание : Разделение по промежуткам
Продолжительность промежутка : 42 мс. (1,00 видеокадр)
Время предзагрузки промежутка : 500 мс.
Библиотека кодирования : LAME3.99r
Настройки программы : -m j -V 4 -q 2 -lowpass 18.6 -b 192
Download / Скачать

Хотите скачать бесплатно? Зарегистрируйтесь на сайте (ссылка на регистрацию). Pirat.ca - самый быстрый торрент трекер в рунете!

Как скачивать  ·   Что такое торрент  ·   Рейтинг и ограничения

pvm

Корсар

Пост 01-Авг-2016 01:53 (спустя 1 день 5 часов)

[Q] 

У сериала есть логическое завершение или просто бросили снимать?
[Профиль]  [ЛС] 

somik ®

Легенда

26634

Пост 01-Авг-2016 03:21 (спустя 1 час 28 минут)

[Q] 

761586У сериала есть логическое завершение или просто бросили снимать?
"... Этот американский сериал от канала CW вышел в эфир в начале 2014 года. После показа первого сезона многие фанаты телепроекта начали спрашивать, а будет ли продолжение. Зрители хотели узнать, когда выйдет «Несчастные» 2 сезон. Дата выхода новых серий сериала «Под несчастливой звездой» (Star-Crossed) интересовала многих зрителей в разных странах.
В мае 2014 года руководство телеканала сообщило о закрытии сериала после первого сезона. Причиной такого решения тали низкие рейтинги сериала. Рейтинги проекта оказались достаточно слабыми — 1,28 миллионов зрителей за эпизод. Сериал star-crossed (Кислород) стал одним из самых низко-рейтинговых телесериалов сети CW в 2014 году." aa

_________________
Всё когда-нибудь уже было... В интернете!
[Профиль]  [ЛС] 

pvm

Корсар

Пост 02-Авг-2016 01:46 (спустя 22 часа)

[Q] 

Спасибо за ответ.
[Профиль]  [ЛС] 
Показать сообщения:    
Ответить на тему

Текущее время: Сегодня 16:15

Часовой пояс: GMT + 4



Вы не можете начинать темы
Вы не можете отвечать на сообщения
Вы не можете редактировать свои сообщения
Вы не можете удалять свои сообщения
Вы не можете голосовать в опросах
Вы не можете прикреплять файлы к сообщениям
Вы не можете скачивать файлы

▼ Вниз