ML
     
  Уважаемый Гость!
Вы можете поддержать проект и зарегистрироваться у наших партнеров - онлайн-стратегия MyLands. При регистрации в игре Вы получите код, который сможете активировать после регистрации на pirat.ca и получить 1000 дублонов.

Ваш код:
500cb7bd8d2cec9a8aba647a87ce41c4b76f06bd
 
     

Братство / Brotherhood / Сезон: 1 / Серии: 1-11 из 11 (Эдвард Бьянчи / Edward Bianchi, ...) [2006 г., драма, криминал, WEB-DLRip] MVO (FOX Crime) + Original (Eng)

Ответить на тему
 
Автор
Сообщение

Пост 31-Июл-2016 00:56

[Q] 

somik

Легенда

-Братство / Brotherhood-- Производство: США, Gangtackle, Mandalay Television, Showtime Networks Inc.
Жанр: драма, криминал
Год выпуска: 2006 г.
Продолжительность: 00:54:00
Мировая премьера: 9 июля 2006
Перевод: Профессиональный (многоголосый, закадровый) [FOX Crime]
Оригинальный аудиопоток: английский
Режиссер: Эдвард Бьянчи / Edward Bianchi, ...-В ролях: Джейсон Айзекс, Джейсон Кларк, Аннабет Гиш, Кевин Чэпмен-Описание: В ирландском рабочем квартале города Провиденс (Род-Айленд, США) по-прежнему действуют законы улиц и процветает теневой бизнес. Здесь выросли братья Томми и Майк Кэффи. Томми стал политиком, видящим свою задачу в защите интересов жителей своего района. Майк же откровенный бандит, желающий встать во главе местной мафии.-
Качество видео: WEB-DLRip
Контейнер: AVI
Видео кодек: XviD
Аудио кодек: MP3
Видео: 720x400 (1.80:1), 23.976 fps, XviD MPEG-4 ~1282 kbps avg, 0.19 bit/pixel
Аудио: 48 kHz, MPEG Layer 3, 2 ch, ~128.00 kbps avg
Аудио #2: 48 kHz, MPEG Layer 3, 2 ch, ~128.00 kbps avg
Cубтитры: отсутствуют
Сериал оставил довольно неоднозначные впечатления.
Плюсы: добротный кастинг (особенно это касается Джейсона Айзекса, который во многом обусловил интерес к сериалу), интересный сюжет, сложный жанр криминальной и политической драмы, проработанные характеры, атмосферность и любимый мной черный юмор.
Минусы: кое-где провисающее действие и некий «упадок» третьего сезона, который оборвался внезапно, так и не дав исчерпывающей информации о судьбах героев. Открытый финал оставил больше вопросов, чем ответов.
Сериал хорошо демонстрирует такое явление как проблема морального выбора. Выбора во всех аспектах жизни. Мы видим, как благодаря принятию решений персонажи эволюционируют, иногда становясь чуть ли не антагонистами самих себя. Особый «привкус» реализма ощущаешь, когда видишь, что герои «хотят как лучше, а получается как всегда».
В целом — неплохой сериал для ценителей жанра и Джейсона Айзекса.
Общее
Полное имя : F:\!СЕРИАЛЫ\Brotherhood.S01.2006.WEB-DLRip.FOX Crime.[pirat.ca]\Brotherhood.S01E01.WEB-DLRip.Rus.[FOX.Crime].Eng.-SVM.avi
Формат : AVI
Формат/Информация : Audio Video Interleave
Размер файла : 602 Мбайт
Продолжительность : 54 м.
Общий поток : 1554 Кбит/сек
Название фильма : Brotherhood.S01E01.WEB-DLRip.Rus.[FOX.Crime].Eng.-SVM
Программа кодирования : VirtualDubMod 1.5.10.2 (build 2540/release)
Видео
Идентификатор : 0
Формат : MPEG-4 Visual
Профиль формата : Advanced [email protected]
Параметр BVOP формата : 3
Параметр QPel формата : Нет
Параметр GMC формата : Без точки перехода
Параметр матрицы формата : Default (MPEG)
Режим смешивания : Сжатый битовый поток
Идентификатор кодека : XVID
Идентификатор кодека/Подсказка : XviD
Продолжительность : 54 м.
Битрейт : 1284 Кбит/сек
Ширина : 720 пикселей
Высота : 400 пикселей
Соотношение сторон : 16:9
Частота кадров : 23,976 (23976/1000) кадра/сек
Цветовое пространство : YUV
Субдискретизация насыщенности : 4:2:0
Битовая глубина : 8 бит
Тип развёртки : Прогрессивная
Метод сжатия : С потерями
Бит/(Пиксели*Кадры) : 0.186
Размер потока : 497 Мбайт (83%)
Библиотека кодирования : XviD 1.2.1 (UTC 2008-12-04)
Аудио #1
Идентификатор : 1
Формат : MPEG Audio
Версия формата : Version 1
Профиль формата : Layer 3
Идентификатор кодека : 55
Идентификатор кодека/Подсказка : MP3
Продолжительность : 54 м.
Вид битрейта : Постоянный
Битрейт : 128 Кбит/сек
Каналы : 2 канала
Частота : 48,0 КГц
Метод сжатия : С потерями
Размер потока : 49,6 Мбайт (8%)
Выравнивание : Соединение по промежуткам
Продолжительность промежутка : 42 мс. (1,00 видеокадр)
Время предзагрузки промежутка : 504 мс.
Библиотека кодирования : LAME3.98r
Настройки программы : -m s -V 4 -q 2 -lowpass 17 -b 128
Аудио #2
Идентификатор : 2
Формат : MPEG Audio
Версия формата : Version 1
Профиль формата : Layer 3
Идентификатор кодека : 55
Идентификатор кодека/Подсказка : MP3
Продолжительность : 54 м.
Вид битрейта : Постоянный
Битрейт : 128 Кбит/сек
Каналы : 2 канала
Частота : 48,0 КГц
Метод сжатия : С потерями
Размер потока : 49,6 Мбайт (8%)
Выравнивание : Соединение по промежуткам
Продолжительность промежутка : 42 мс. (1,00 видеокадр)
Время предзагрузки промежутка : 504 мс.
Библиотека кодирования : LAME3.98r
Настройки программы : -m s -V 4 -q 2 -lowpass 17 -b 128
Download / Скачать

Хотите скачать бесплатно? Зарегистрируйтесь на сайте (ссылка на регистрацию). Pirat.ca - самый быстрый торрент трекер в рунете!

Как скачивать  ·   Что такое торрент  ·   Рейтинг и ограничения

Показать сообщения:    
Ответить на тему

Текущее время: Сегодня 01:49

Часовой пояс: GMT + 4



Вы не можете начинать темы
Вы не можете отвечать на сообщения
Вы не можете редактировать свои сообщения
Вы не можете удалять свои сообщения
Вы не можете голосовать в опросах
Вы не можете прикреплять файлы к сообщениям
Вы не можете скачивать файлы

▼ Вниз