ML
     
  Уважаемый Гость!
Вы можете поддержать проект и зарегистрироваться у наших партнеров - онлайн-стратегия MyLands. При регистрации в игре Вы получите код, который сможете активировать после регистрации на pirat.ca и получить 1000 дублонов.

Ваш код:
a261790f23fb05d13d060bdee9cb70d1451a6d3d
 
     

Дирк Джентли / Dirk Gently / Сезон: 1 / Серии: 4 серии из 4 (Дэймон Томас / Damon Thomas) [2012 г., фантастика, комедия, криминал, HDTVRip] MVO (Ozz)

Ответить на тему
 
Автор
Сообщение

Пост 31-Июл-2016 01:44

[Q] 

somik

Легенда

-Дирк Джентли / Dirk Gently-- Производство: Великобритания, ITV Studios
Жанр: фантастика, комедия, криминал
Год выпуска: 2012 г.
Продолжительность: 00:57:00
Мировая премьера: 5 марта 2012
Перевод: Профессиональный (многоголосый, закадровый) [Ozz]
Режиссер: Дэймон Томас / Damon Thomas-В ролях: Стефен Мэнгэн (Dirk Gently), Хелен Бексендейл (Susan Harmison), Даррен Бойд (Richard MacDuff), Дорин Мэнтл (Ruth Jordan), Джейсон Уоткинс (Detective Inspector Gilks), Лиза Джексон (Janice Pearce), Энтони Хауэлл (Gordon Way), Майлз Ричардсон (Doctor Gerstenberger), Билли Бойл (Harry Jordan), Эллиот Сазерленд (Tom), Гари Пиллаи (Doctor), Алиша Бэйли (Reporter) и др.-Описание: Эксцентричный частный детектив Дирк Джентли использует «холистические» методы — он верит, что все во вселенной взаимосвязано. Когда Дирка нанимает для нахождения кота престарелая Рус, он вместе с невольным помощником Ричардом МакДаффом обыскивают ангар, который вскоре взрывается. Дирк уверен, что странное устройство, найденное ими в ангаре, исчезновение миллиардера Гордона Уэя и кота Генри взаимосвязаны.-
Качество видео: HDTVRip
Контейнер: AVI
Видео кодек: XviD
Аудио кодек: MP3
Видео: 624x352 (1.77:1), 25 fps, XviD build 50 ~898 kbps avg, 0.16 bit/pixel
Аудио: 44.100 kHz, MPEG Layer 3, 2 ch, ~128.00 kbps avg
Аудио #2: 48 kHz, MPEG Layer 3, 2 ch, ~103.18 kbps avg
Cубтитры: отсутствуют
Сериал основан на серии книг о детективе Дирке Джентли — «Детективное агентство Дирка Джентли» (Dirk Gently`s Holistic Detective Agency), автором которой является Дуглас Адамс.
Сюжет: эксцентричный частный детектив Дирк Джентли использует в работе холистический метод, согласно которому все во Вселенной взаимосвязанно. Все дела клиентов, которыми он занимается одновременно, он рассматривает как взаимосвязанные, имеющие отношения к делу и помогающие в итоге привести к разгадке. Хотя зачастую его расследования больше напоминают хаос.
В первой же серии к Дирку присоединяется его старый приятель Ричард Макдаф, по ходу действия из клиента превратившись в помощника, а затем и в партнера (после того как в результате гипнотического сеанса он не совсем добровольно вложил часть своих денег в развитие детективного агентства.)
Сериал похож на смесь Шерлока BBC и Доктора Кто. От Шерлока здесь стилистика съемки и все классические составляющие — асоциальный детектив и его гораздо более близкий к реальному миру помощник, заковыристые расследования, противный инспектр а-ля Лейстрейд и даже главный герой кучерявый. От Доктора Кто тут примесь легкого безумия.
Мне сериал понравился. Не полный восторг, но довольна, что посмотрела. Радует и юмористическая составляющая сериала.
И хотя Дирк Джентли не настолько волшебно привлекателен как Шерлок, некоторое количество часов в его обществе провести приятно.
8 из 10
Общее
Полное имя : F:\!СЕРИАЛЫ\Dirk Gently.S01.OzzTV.[pirat.ca]\Dirk.Gently.s01e00.Rus.Ozz.TV.Eng.avi
Формат : AVI
Формат/Информация : Audio Video Interleave
Размер файла : 478 Мбайт
Продолжительность : 58 м.
Режим общего битрейта : Переменный
Общий поток : 1146 Кбит/сек
Название фильма : Dirk.Gently.s01e00.Rus.Ozz.TV.Eng
Программа кодирования : VirtualDubMod 1.5.10.2 (build 2540/release)
Видео
Идентификатор : 0
Формат : MPEG-4 Visual
Профиль формата : Advanced [email protected]
Параметр BVOP формата : 2
Параметр QPel формата : Нет
Параметр GMC формата : Без точки перехода
Параметр матрицы формата : Default (H.263)
Идентификатор кодека : XVID
Идентификатор кодека/Подсказка : XviD
Продолжительность : 58 м.
Битрейт : 900 Кбит/сек
Ширина : 624 пикселя
Высота : 352 пикселя
Соотношение сторон : 16:9
Частота кадров : 25,000 кадров/сек
Цветовое пространство : YUV
Субдискретизация насыщенности : 4:2:0
Битовая глубина : 8 бит
Тип развёртки : Прогрессивная
Метод сжатия : С потерями
Бит/(Пиксели*Кадры) : 0.164
Размер потока : 376 Мбайт (79%)
Библиотека кодирования : XviD 1.2.1 (UTC 2008-12-04)
Аудио #1
Идентификатор : 1
Формат : MPEG Audio
Версия формата : Version 1
Профиль формата : Layer 3
Идентификатор кодека : 55
Идентификатор кодека/Подсказка : MP3
Продолжительность : 58 м.
Вид битрейта : Постоянный
Битрейт : 128 Кбит/сек
Каналы : 2 канала
Частота : 44,1 КГц
Метод сжатия : С потерями
Размер потока : 53,4 Мбайт (11%)
Выравнивание : Разделение по промежуткам
Продолжительность промежутка : 40 мс. (1,00 видеокадр)
Время предзагрузки промежутка : 500 мс.
Аудио #2
Идентификатор : 2
Формат : MPEG Audio
Версия формата : Version 1
Профиль формата : Layer 3
Режим : Joint stereo
Расширение режима : MS Stereo
Идентификатор кодека : 55
Идентификатор кодека/Подсказка : MP3
Продолжительность : 58 м.
Вид битрейта : Переменный
Битрейт : 103 Кбит/сек
Номинальный битрейт : 128 Кбит/сек
Каналы : 2 канала
Частота : 48,0 КГц
Метод сжатия : С потерями
Размер потока : 43,1 Мбайт (9%)
Выравнивание : Разделение по промежуткам
Продолжительность промежутка : 40 мс. (1,00 видеокадр)
Время предзагрузки промежутка : 500 мс.
Библиотека кодирования : LAME3.98r
Настройки программы : -m j -V 4 -q 2 -lowpass 17 --abr 128
Download / Скачать

Хотите скачать бесплатно? Зарегистрируйтесь на сайте (ссылка на регистрацию). Pirat.ca - самый быстрый торрент трекер в рунете!

Как скачивать  ·   Что такое торрент  ·   Рейтинг и ограничения

pvm

Корсар

Пост 01-Авг-2016 01:49 (спустя 1 день)

[Q] 

Это мини-сериал, или будут выкладываться еще серии?
[Профиль]  [ЛС] 
Показать сообщения:    
Ответить на тему

Текущее время: Сегодня 20:04

Часовой пояс: GMT + 4



Вы не можете начинать темы
Вы не можете отвечать на сообщения
Вы не можете редактировать свои сообщения
Вы не можете удалять свои сообщения
Вы не можете голосовать в опросах
Вы не можете прикреплять файлы к сообщениям
Вы не можете скачивать файлы

▼ Вниз