ML
     
  Уважаемый Гость!
Вы можете поддержать проект и зарегистрироваться у наших партнеров - онлайн-стратегия MyLands. При регистрации в игре Вы получите код, который сможете активировать после регистрации на pirat.ca и получить 1000 дублонов.

Ваш код:
34514219cfad5497a1822ecc1269bea77988f9aa
 
     

Приятный на вид / Eye Candy / Сезон: 1 / Серии: 1-10 из 10 (Нэйтан Хоуп / Nathan Hope, ...) [2015 г., триллер, драма, криминал, детектив, HDTVRip] DVO (Alternative Production)

Ответить на тему
 
Автор
Сообщение

Пост 31-Июл-2016 03:17

[Q] 

somik

Легенда

-Приятный на вид / Eye Candy-- Производство: США, Blumhouse Productions, Jax Media
Жанр: триллер, драма, криминал, детектив
Год выпуска: 2015 г.
Продолжительность: 00:40:00
Мировая премьера: 12 января 2015
Перевод: Любительский (двухголосый, закадровый) [Alternative Production]
Режиссер: Нэйтан Хоуп / Nathan Hope, ...-В ролях: Виктория Джастис, Кэйси Дейдрик, Харви Гильен, Маркус Каллендер, Скотт Уайт, Кирси Клемонс, Джон Гарет Стоукер, Райан Купер, Мелани Николлз-Кинг, Теодора Вулли-Описание: Сериал, рассказывающий о жительнице Нью-Йорка, которая подозревает, что один из ее онлайн-ухажеров является серийным убийцей. Она применяет все свои хакерские данные, чтобы вычислить преступников. В этом ей поможет команда единомышленников.-
Качество видео: HDTVRip
Контейнер: AVI
Видео кодек: XviD
Аудио кодек: MP3
Видео: 720x400 (1.80:1), 23.976 fps, XviD MPEG-4 ~1652 kbps avg, 0.24 bit/pixel
Аудио: 48 kHz, MPEG Layer 3, 2 ch, ~192.00 kbps avg
Cубтитры: отсутствуют
Милашка?! Ты назвала меня Милашкой?
Сериал настолько потрясающий, что словами свои выразить невозможно. Великолепный актерский состав, который замечательно справился со своими ролями. Я не заметила ни одного персонажа, который не рас крылся бы с самой первой серии. Достаточно первого получаса, чтобы разобраться в связи персонажей и их отношением друг к другу.
Сама идея преследования не нова, но в нее влита свежая кровь. Например, я не встречала сериал, где преследователь находил своих жертв на сайтах знакомств.
Пилотная серия достаточно насыщенная и захватывающая, приковывает к экрану с первых же минут. Здесь нет долгих и нудных разговоров, которые растягиваются, лишая зрителей желания смотреть дальше тягомотину. Герои не похожи на вареные овощи, они в движении все время. Безусловно, лирические отступления присутствуют, но абсолютно уместны и только лучше помогают понять суть происходящего.
Безумно рада увидеть Викторию Джастис в новом амплуа. Да, в комедийных сериалах она хороша, но, думаю, для того чтобы начать раскрываться еще больше, ей как раз не хватало Линди.
Сериал безусловно подает большие надежды.
Кстати, название перевели как «Приятный на вид» для меня до сих пор загадка, ведь очевидно, что оно должно быть в женском роде «Приятная на вид».
10 из 10
Общее
Полное имя : F:\!СЕРИАЛЫ\Eye Candy [AltPro].[pirat.ca]\Eye Candy s01e01 [Alt Pro].avi
Формат : AVI
Формат/Информация : Audio Video Interleave
Размер файла : 544 Мбайт
Продолжительность : 41 м.
Общий поток : 1854 Кбит/сек
Название фильма : Eye Candy s01e01 [Alt Pro]
Программа кодирования : MEncoder SVN-r33883(20110719-gcc4.5.2)
Видео
Идентификатор : 0
Формат : MPEG-4 Visual
Профиль формата : Advanced [email protected]
Параметр BVOP формата : 2
Параметр QPel формата : Нет
Параметр GMC формата : Без точки перехода
Параметр матрицы формата : Default (H.263)
Режим смешивания : Сжатый битовый поток
Идентификатор кодека : XVID
Идентификатор кодека/Подсказка : XviD
Продолжительность : 41 м.
Битрейт : 1652 Кбит/сек
Ширина : 720 пикселей
Высота : 400 пикселей
Соотношение сторон : 16:9
Частота кадров : 23,976 (23976/1000) кадра/сек
Цветовое пространство : YUV
Субдискретизация насыщенности : 4:2:0
Битовая глубина : 8 бит
Тип развёртки : Прогрессивная
Метод сжатия : С потерями
Бит/(Пиксели*Кадры) : 0.239
Размер потока : 485 Мбайт (89%)
Библиотека кодирования : XviD 73
Аудио
Идентификатор : 1
Формат : MPEG Audio
Версия формата : Version 1
Профиль формата : Layer 3
Режим : Joint stereo
Идентификатор кодека : 55
Идентификатор кодека/Подсказка : MP3
Продолжительность : 41 м.
Вид битрейта : Постоянный
Битрейт : 192 Кбит/сек
Каналы : 2 канала
Частота : 48,0 КГц
Метод сжатия : С потерями
Размер потока : 56,3 Мбайт (10%)
Выравнивание : Разделение по промежуткам
Продолжительность промежутка : 42 мс. (1,00 видеокадр)
Время предзагрузки промежутка : 500 мс.
Download / Скачать

Хотите скачать бесплатно? Зарегистрируйтесь на сайте (ссылка на регистрацию). Pirat.ca - самый быстрый торрент трекер в рунете!

Как скачивать  ·   Что такое торрент  ·   Рейтинг и ограничения

Показать сообщения:    
Ответить на тему

Текущее время: Сегодня 07:56

Часовой пояс: GMT + 4



Вы не можете начинать темы
Вы не можете отвечать на сообщения
Вы не можете редактировать свои сообщения
Вы не можете удалять свои сообщения
Вы не можете голосовать в опросах
Вы не можете прикреплять файлы к сообщениям
Вы не можете скачивать файлы

▼ Вниз