ML
     
  Уважаемый Гость!
Вы можете поддержать проект и зарегистрироваться у наших партнеров - онлайн-стратегия MyLands. При регистрации в игре Вы получите код, который сможете активировать после регистрации на pirat.ca и получить 1000 дублонов.

Ваш код:
a6d1ef7ff63e237add5a4c8b21d8aa937c5e9b4b
 
     

Любовь / Love / Сезон: 1 / Серии: 1-10 из 10 (Дин Холлэнд / Dean Holland, ...) [2016 г., комедия, WEB-DLRip] DVO (Ozz) + Sub (Rus)

Ответить на тему
 
Автор
Сообщение

Пост 31-Июл-2016 16:27

[Q] 

somik

Легенда

-Любовь / Love-- Производство: США, Netflix, Apatow Productions, Legendary Television
Жанр: комедия
Год выпуска: 2016 г.
Продолжительность: 00:40:00
Мировая премьера: 19 февраля 2016
Перевод: Любительский (двухголосый, закадровый) [Ozz]
Режиссер: Дин Холлэнд / Dean Holland, ...-В ролях: Гиллиан Джейкобс, Пол Руст, Клаудия О Доэрти, Джордан Рок, Трейси Томс, Майк Митчелл, Айрис Апатоу, Брига Хилэн, Сет Моррис и др.-Описание: ас — тридцатиоднолетний холостяк, который работает приходящим учителем детей-актёров на съёмочной площадке сериала о ведьмах. В принципе, его можно назвать неудачником, но Гас не вешает нос — когда-нибудь он найдёт любовь и станет настоящим сценаристом (он написал эпизод сериала, на котором работает, но никак не решается подсунуть его «нужным людям»). Микки — тридцатидвухлетняя алкоголичка, не брезгующая и лёгкими наркотиками, которая набралась решимости послать-таки своего инфантильного парня, но завязать с другими вредными привычками не может. Однажды два одиночества встретятся в магазине, и их жизни уже никогда не будут прежними.-
Качество видео: WEB-DLRip
Контейнер: AVI
Видео кодек: XviD
Аудио кодек: AC3
Видео: 720x400 (1.80:1), 23.976 fps, XviD build 73 ~1997 kbps avg, 0.29 bit/pixel
Аудио: 48 kHz, AC3 Dolby Digital, 3/2 (L,C,R,l,r) + LFE ch, ~384 kbps
Аудио #2: 48 kHz, AC3 Dolby Digital, 3/2 (L,C,R,l,r) + LFE ch, ~384 kbps
Cубтитры: русские
Формат субтитров: softsub (SSA/ASS)
Доп. информация о субтитрах: внешние
Джадд Апатоу, главный комедиограф Голливуда, автор «Сорокалетнего девственника», «Немножко беременной» и выдающихся во всех отношениях «Приколистов», решил впервые за долгие годы создать собственный сериал. Да, «Девочки» выходят под его крылом, но там он выступает лишь наставником Лины Данем.
«Любовь» же совсем другое дело. Апатоу угадывается с первых минут: стендаповые шутки на грани фола, циничные, неудачливые персонажи и вовремя включающаяся сентиментальность. Главный трюк сериала в том, что зрителю совсем не хочется любить его героев — они эгоистичны, заносчивы и рушат всё собственными руками. Обычные, в общем, люди, которые заслуживают счастья. Пол Раст удачно справляется с амплуа алленовского неврастеника, а Джиллиан Джейкобс будто бы рождена для этой роли. В качестве бонуса — режиссёрские работы Стива Бушеми и Джона Слэттери, а также образцовый для ромкома саундтрек.
8 из 10
Общее
Полное имя : F:\ЛЮБОВЬ\Love.S01.Ozz.[pirat.ca]\Love.S01E01.WEBRip.Ozz.avi
Формат : AVI
Формат/Информация : Audio Video Interleave
Размер файла : 800 Мбайт
Продолжительность : 40 м.
Общий поток : 2781 Кбит/сек
Название фильма : Love.S01E01.WEBRip.Ozz
Программа кодирования : VirtualDubMod 1.5.10.3 | www.virtualdub-fr.org || (build 2550/release)
Видео
Идентификатор : 0
Формат : MPEG-4 Visual
Профиль формата : Advanced [email protected]
Параметр BVOP формата : 1
Параметр QPel формата : Нет
Параметр GMC формата : Без точки перехода
Параметр матрицы формата : Default (MPEG)
Идентификатор кодека : XVID
Идентификатор кодека/Подсказка : XviD
Продолжительность : 40 м.
Битрейт : 1999 Кбит/сек
Ширина : 720 пикселей
Высота : 400 пикселей
Соотношение сторон : 16:9
Частота кадров : 23,976 (23976/1000) кадра/сек
Цветовое пространство : YUV
Субдискретизация насыщенности : 4:2:0
Битовая глубина : 8 бит
Тип развёртки : Прогрессивная
Метод сжатия : С потерями
Бит/(Пиксели*Кадры) : 0.289
Размер потока : 575 Мбайт (72%)
Библиотека кодирования : XviD 73
Аудио #1
Идентификатор : 1
Формат : AC-3
Формат/Информация : Audio Coding 3
Расширение режима : CM (complete main)
Параметр Endianness формата : Big
Идентификатор кодека : 2000
Продолжительность : 40 м.
Вид битрейта : Постоянный
Битрейт : 384 Кбит/сек
Каналы : 6 каналов
Расположение каналов : Front: L C R, Side: L R, LFE
Частота : 48,0 КГц
Частота кадров : 31,250 кадров/сек (1536 spf)
Метод сжатия : С потерями
Размер потока : 110 Мбайт (14%)
Выравнивание : Разделение по промежуткам
Продолжительность промежутка : 42 мс. (1,00 видеокадр)
Время предзагрузки промежутка : 500 мс.
Аудио #2
Идентификатор : 2
Формат : AC-3
Формат/Информация : Audio Coding 3
Расширение режима : CM (complete main)
Параметр Endianness формата : Big
Идентификатор кодека : 2000
Продолжительность : 40 м.
Вид битрейта : Постоянный
Битрейт : 384 Кбит/сек
Каналы : 6 каналов
Расположение каналов : Front: L C R, Side: L R, LFE
Частота : 48,0 КГц
Частота кадров : 31,250 кадров/сек (1536 spf)
Метод сжатия : С потерями
Размер потока : 110 Мбайт (14%)
Выравнивание : Разделение по промежуткам
Продолжительность промежутка : 42 мс. (1,00 видеокадр)
Время предзагрузки промежутка : 500 мс.
Download / Скачать

Хотите скачать бесплатно? Зарегистрируйтесь на сайте (ссылка на регистрацию). Pirat.ca - самый быстрый торрент трекер в рунете!

Как скачивать  ·   Что такое торрент  ·   Рейтинг и ограничения

Показать сообщения:    
Ответить на тему

Текущее время: Сегодня 13:37

Часовой пояс: GMT + 4



Вы не можете начинать темы
Вы не можете отвечать на сообщения
Вы не можете редактировать свои сообщения
Вы не можете удалять свои сообщения
Вы не можете голосовать в опросах
Вы не можете прикреплять файлы к сообщениям
Вы не можете скачивать файлы

▼ Вниз