ML
     
  Уважаемый Гость!
Вы можете поддержать проект и зарегистрироваться у наших партнеров - онлайн-стратегия MyLands. При регистрации в игре Вы получите код, который сможете активировать после регистрации на pirat.ca и получить 1000 дублонов.

Ваш код:
822959f93c00d34653763d5bbf9ee9a7134af98a
 
     

Охотники / Hunters / Сезон: 1 / Серии: 1-13 из 13 (Глендин Айвин / Glendyn Ivin, ...) [2016 г., фантастика, триллер, драма, криминал, WEB-DLRip] MVO (Kravec)

Ответить на тему
 
Автор
Сообщение

Пост 07-Авг-2016 00:05

[Q] 

somik

Легенда

-Охотники / Hunters-- Производство: США, Valhalla Entertainment, ...
Жанр: фантастика, триллер, драма, криминал
Год выпуска: 2016 г.
Продолжительность: 00:43:00
Мировая премьера: 11 апреля 2016
Перевод: Профессиональный (многоголосый, закадровый) [Kravec]
Режиссер: Глендин Айвин / Glendyn Ivin, ...-В ролях: Джулиан МакМэхон, Бритни Олдфорд, Нэйтан Филлипс, Ханна Фредериксен, Марк Коулз Смит, Льюис Фиц-Джералд, Сара Пирс, Лаура Гордон, Эдвина Рен, Шеннон Берри, Дениз Акдениз-Описание: У Флинна Кэролла при невыясненных обстоятельствах погибает жена. Он входит в состав специального отряда по борьбе с терроризмом, чтобы противостоять тайной сети инопланетян-террористов на Земле.-
Качество видео: WEB-DLRip
Контейнер: AVI
Видео кодек: XviD
Аудио кодек: MP3
Видео: 720x400 (1.80:1), 23.810 fps, XviD build 64 ~889 kbps avg, 0.13 bit/pixel
Аудио: 48 kHz, MPEG Layer 3, 2 ch, ~224.00 kbps avg
Cубтитры: отсутствуют
Общее
Полное имя : F:\!СЕРИАЛЫ\Охотники\Hunters.S01.2016.WEB-DLRip.Kravec.[pirat.ca]\Hunters.S01E01.XviD.Kravec.avi
Формат : AVI
Формат/Информация : Audio Video Interleave
Размер файла : 355 Мбайт
Продолжительность : 44 м.
Общий поток : 1127 Кбит/сек
Название фильма : Hunters.S01E01.XviD.Kravec
Программа кодирования : Lavf55.19.104
Видео
Идентификатор : 0
Формат : xvid
Идентификатор кодека : xvid
Продолжительность : 44 м.
Битрейт : 890 Кбит/сек
Ширина : 720 пикселей
Высота : 400 пикселей
Соотношение сторон : 16:9
Частота кадров : 23,810 кадра/сек
Тип развёртки : Прогрессивная
Бит/(Пиксели*Кадры) : 0.130
Размер потока : 281 Мбайт (79%)
Заголовок : Video Track
Аудио
Идентификатор : 1
Формат : MPEG Audio
Версия формата : Version 1
Профиль формата : Layer 3
Режим : Joint stereo
Идентификатор кодека : 55
Идентификатор кодека/Подсказка : MP3
Продолжительность : 44 м.
Вид битрейта : Постоянный
Битрейт : 224 Кбит/сек
Каналы : 2 канала
Частота : 48,0 КГц
Метод сжатия : С потерями
Размер потока : 70,6 Мбайт (20%)
Выравнивание : Соединение по промежуткам
Продолжительность промежутка : 24 мс. (0,57 видеокадр)
Заголовок : Audio Track
Download / Скачать

Хотите скачать бесплатно? Зарегистрируйтесь на сайте (ссылка на регистрацию). Pirat.ca - самый быстрый торрент трекер в рунете!

Как скачивать  ·   Что такое торрент  ·   Рейтинг и ограничения

somik ®

Легенда

26975

Пост 07-Авг-2016 00:07 (спустя 2 минуты)

[Q] 

Извините: иногда всплывает беззвучная реклама козЛино! ca

_________________
Всё когда-нибудь уже было... В интернете!
[Профиль]  [ЛС] 
Показать сообщения:    
Ответить на тему

Текущее время: Сегодня 05:59

Часовой пояс: GMT + 4



Вы не можете начинать темы
Вы не можете отвечать на сообщения
Вы не можете редактировать свои сообщения
Вы не можете удалять свои сообщения
Вы не можете голосовать в опросах
Вы не можете прикреплять файлы к сообщениям
Вы не можете скачивать файлы

▼ Вниз