ML
     
  Уважаемый Гость!
Вы можете поддержать проект и зарегистрироваться у наших партнеров - онлайн-стратегия MyLands. При регистрации в игре Вы получите код, который сможете активировать после регистрации на pirat.ca и получить 1000 дублонов.

Ваш код:
ba41f7961e0b4717aed6a401d955262223b8f6c4
 
     

Счастливчик / Stan Lee's Lucky Man / Сезон: 1 / Серии: 1-10 из 10 (Дэвид Кэффри / David Caffrey, ...) [2016 г., фантастика, боевик, ..., HDTVRip] MVO (Jaskier)

Ответить на тему
 
Автор
Сообщение

Пост 25-Авг-2016 19:54

[Q] 

somik

Легенда

-Счастливчик / Stan Lee's Lucky Man-- Производство: Великобритания
Жанр: фантастика, боевик, ...
Год выпуска: 2016 г.
Продолжительность: 00:44:00
Мировая премьера: 22 января 2016
Перевод: Профессиональный (многоголосый, закадровый) [Jaskier]
Режиссер: Дэвид Кэффри / David Caffrey, ...-В ролях: Джеймс Несбитт, Стефен Хэйгэн, Джозеф Гатт, Лиза Диллон, Ли Николас Харрис, Мэтт Таунсенд, Эндрю Ли Поттс, Пол Блэкуэлл, Гарри Марриотт, Лаура Свифт ...-Описание: Гарри Клейтон — крайне невезучий в работе и личной жизни полицейский из лондонского Департамента уголовного розыска. Однажды Гарри встречает таинственную незнакомку, которая дарит ему древний браслет. Обладатель этой непростой побрякушки получает способность контролировать удачу. Но у любого подобного подарка есть своя цена.-
Качество видео: HDTVRip
Контейнер: AVI
Видео кодек: XviD
Аудио кодек: AC3
Видео: 720x400 (1.80:1), 25 fps, XviD build 67 ~1304 kbps avg, 0.18 bit/pixel
Аудио: 48 kHz, AC3 Dolby Digital, 2/0 (L,R) ch, ~192 kbps
Cубтитры: отсутствуют
Удачи, Мёрф!
Тонкая ирония, сейчас поймете. В середины 00-ых Джеймс Несбитт играл в полицейской драме «Закон Мерфи» (особенности роли напрямую выходят из названия). Спустя десяток лет ему доверяют схожего персонажа в сериале с обратным названием: «Счастливчик». Телеиндустрия символически воздает Несбитту за все мытарства, а? Не совсем так.
Лондонский «бобби» Гарри Клейтон — лудоман со стажем. Его невезение бьет любые рекорды во всех направлениях. Расследования буксуют, на работе — интриги, на личном фронте — косяк за косяком. Он задолжал неприличную сумму не совсем приличным людям. Волей обстоятельств герой становится обладателем чудодейственного браслета, который притягивает удачу весьма своеобразным образом. Снять браслет нельзя, пользоваться им оказывается себе дороже, но жить-то надо. Кроме того, не слишком вежливые джентльмены с острыми тесаками имеют намерение решить проблему реквизиции ювелирного изделия немногим более радикально, чем хотелось бы. В общем, куда ни кинь — всюду клин: и невезучим быть хреново, и у Фортуны за пазухой — нехорошо.
Оригинальное название интригует: «Stan Lee`s Lucky Man»… Стэн Ли, говорю! Но какое отношение американский патриарх комиксов может иметь к сериалу в современной криминальной стилистике британского ТВ? Изаморские источники утверждают что-то о кооперации мэтра то ли с Carnival Films, то ли со Sky-one, разберись. Однако в любом случае Гарри Клейтон как персонаж крайне нетипичен для старины Стэна. Или в 93 потянуло на что-то новенькое? Сам мистер Ли так комментирует происходящее. Меня всегда увлекала тема удачи, и я очень рад наконец разделить свое увлечение с аудиторией по всему миру. Долго же ты ждал, бро, как долго ты ждал!
Римский мимический поэт I века до н. э. Публий Сир уверял, что фортуна иногда дает слишком много, но никогда не дает достаточно. Что такое тема удачи по Стэну Ли начинаешь понимать, как только предыдущий владелец магического браслета отправляется в суицидальное путешествие с ближайшей крыши. Так что же будет делать Гарри со своим журавлем, накрепко зажатым в пятерне? Сможет ли подобрать ключик к происходящему, или ультрамариновый птах разметает остатки его нелепой жизни и унесется за голубой горизонт, намечая новую жертву? Поживем — посмотрим. Больше интересует другое. Джеймс Несбитт — замечательный актер, не получивший своего карьерного шанса, не свезло. И это станет отличным ходом, если с легкой руки самого Стэна Ли дядя все-таки выплывет на поверхность хотя бы местного шоу-бизнеса. Почему нет? В общем, давайте пожелаем ему удачи.
Общее
Полное имя : J:\ПОСЛЕДНИЕ ЗКГРУЗКИ\Stan Lee's Lucky Man.S01.HDTVRip.Jaskier.[pirat.ca]\Stan.Lees.Lucky.Man.S01E01.HDTVRip.Jaskier.avi
Формат : AVI
Формат/Информация : Audio Video Interleave
Размер файла : 472 Мбайт
Продолжительность : 43 м.
Общий поток : 1506 Кбит/сек
Название фильма : Stan.Lees.Lucky.Man.S01E01.HDTVRip.Jaskier
Программа кодирования : VirtualDubMod 1.5.10.2 (build 2540/release)
Видео
Идентификатор : 0
Формат : MPEG-4 Visual
Профиль формата : [email protected]
Параметр BVOP формата : Нет
Параметр QPel формата : Нет
Параметр GMC формата : Без точки перехода
Параметр матрицы формата : Default (H.263)
Идентификатор кодека : XVID
Идентификатор кодека/Подсказка : XviD
Продолжительность : 43 м.
Битрейт : 1304 Кбит/сек
Ширина : 720 пикселей
Высота : 400 пикселей
Соотношение сторон : 16:9
Частота кадров : 25,000 кадров/сек
Цветовое пространство : YUV
Субдискретизация насыщенности : 4:2:0
Битовая глубина : 8 бит
Тип развёртки : Прогрессивная
Метод сжатия : С потерями
Бит/(Пиксели*Кадры) : 0.181
Размер потока : 409 Мбайт (87%)
Библиотека кодирования : XviD 67
Аудио
Идентификатор : 1
Формат : AC-3
Формат/Информация : Audio Coding 3
Расширение режима : CM (complete main)
Параметр Endianness формата : Big
Идентификатор кодека : 2000
Продолжительность : 43 м.
Вид битрейта : Постоянный
Битрейт : 192 Кбит/сек
Каналы : 2 канала
Расположение каналов : Front: L R
Частота : 48,0 КГц
Частота кадров : 31,250 кадров/сек (1536 spf)
Метод сжатия : С потерями
Размер потока : 60,2 Мбайт (13%)
Выравнивание : Разделение по промежуткам
Продолжительность промежутка : 40 мс. (1,00 видеокадр)
Время предзагрузки промежутка : 500 мс.
Download / Скачать

Хотите скачать бесплатно? Зарегистрируйтесь на сайте (ссылка на регистрацию). Pirat.ca - самый быстрый торрент трекер в рунете!

Как скачивать  ·   Что такое торрент  ·   Рейтинг и ограничения

Treskun

Штурман

Пост 25-Авг-2016 21:16 (спустя 1 час 21 минута)

[Q] 

Посмотрим Буду раздавать
[Профиль]  [ЛС] 

lex-sr

Корсар

Пост 26-Авг-2016 09:21 (спустя 12 часов)

[Q] 

Присоединяюсь
[Профиль]  [ЛС] 
Показать сообщения:    
Ответить на тему

Текущее время: Сегодня 14:47

Часовой пояс: GMT + 4



Вы не можете начинать темы
Вы не можете отвечать на сообщения
Вы не можете редактировать свои сообщения
Вы не можете удалять свои сообщения
Вы не можете голосовать в опросах
Вы не можете прикреплять файлы к сообщениям
Вы не можете скачивать файлы

▼ Вниз